Мы – Миллеры / We\'re the Millers (Роусон Маршалл Тёрбер / Rawson Marshall Thurber) [2013, США, комедия, приключения, BDRip 1080p] [Extended Cut] Dub (iTunes) + MVO (Baibako) + VO (Есарев) + AVO (Карповский) + Original Eng + Sub, Rus, Eng

Ответить на тему
 
Автор Сообщение

user ®

Стаж: 7 лет 7 месяцев

Сообщений: 20008

Пост Пост: #1 от 05-Июл-2015 18:45

[Цитировать]

Мы – Миллеры / We're the Millers / Extended Cut
Страна: США
Студия: BenderSpink, New Line Cinema, Vincent Newman Entertainment
Жанр: комедия, приключения
Год выпуска: 2013
Продолжительность: 01:58:43
Перевод 1: Профессиональный (дублированный) iTunes + mvo Baibako на расширенные сцены
Перевод 2: Любительский (многоголосый закадровый) Baibako
Перевод 3: Одноголосый закадровый Есарев Дмитрий
Перевод 4: Авторский (одноголосый закадровый) Карповский Антон
Cубтитры: русские (надписи), русские, английские, английские (SDH)
Оригинальная аудиодорожка: английский
Режиссер: Роусон Маршалл Тёрбер / Rawson Marshall Thurber
В ролях: Дженнифер Энистон, Джейсон Судейкис, Эмма Робертс, Уилл Поултер, Эд Хелмс, Ник Офферман, Кэтрин Хан, Молли С. Куинн, Томер Сисле, Мэттью Уиллиг
Описание: Дэвид Берк — мелкий торговец наркотиками. Среди его клиентов — повара и скучающие домохозяйки. Детям он наркотики не продаёт и поэтому считает себя принципиальным человеком. Дэвид действительно хорошо относится к детям, но это не остается безнаказанным — он пытается помочь подросткам, попавшим в беду, и на него нападают хулиганы-панки. Они отбирают у него наркотики и деньги, и наш герой оказывается в отчаянном положении. Ведь ему нечем расплатиться с его поставщиком Брэдом. Единственный выход — подрядиться на доставку крупной партии наркотиков через границу…
Сэмпл: Скачать
Тип релиза: BDRip 1080p (SbR)
Контейнер: MKV
Видео: 1920x800, 23.976 fps, x264 ~12075 kbps
Аудио 1: Русский AC3 5.1, 48 kHz, 384 kbps |Дубляж+mvo|
Аудио 2: Русский AC3 5.1, 48 kHz, 384 kbps |Baibako|
Аудио 3: Русский DTS 5.1, 48 kHz, 1509 kbps |Есарев|
Аудио 4: Русский DTS 5.1, 48 kHz, 1509 kbps |Карповский|
Аудио 5: Английский DTS 5.1, 48 kHz, 1509 kbps
Формат субтитров: softsub (SRT)
MediaInfo
General
Unique ID : 243190885568548137900709018245845277483 (0xB6F4DC621900E81A9C967B0DCE10DB2B)
Complete name : D:\We're.the.Millers.2013.Extended.Cut.1080p.BluRay.4xRus.Eng-SbR.mkv
Format : Matroska
Format version : Version 4 / Version 2
File size : 14.4 GiB
Duration : 1h 58mn
Overall bit rate : 17.4 Mbps
Movie name : We're the Millers (2013) [Extended Cut] - Encode by SbR
Encoded date : UTC 2015-06-30 09:05:40
Writing application : mkvmerge v8.1.0 ('Psychedelic Postcard') 64bit
Writing library : libebml v1.3.1 + libmatroska v1.4.2
Attachements : cover.jpg / xlog.txt
Video
ID : 1
Format : AVC
Format/Info : Advanced Video Codec
Format profile : High@L4.1
Format settings, CABAC : Yes
Format settings, ReFrames : 5 frames
Codec ID : V_MPEG4/ISO/AVC
Duration : 1h 58mn
Bit rate : 11.7 Mbps
Width : 1 920 pixels
Height : 800 pixels
Display aspect ratio : 2.40:1
Frame rate mode : Constant
Frame rate : 23.976 fps
Color space : YUV
Chroma subsampling : 4:2:0
Bit depth : 8 bits
Scan type : Progressive
Bits/(Pixel*Frame) : 0.319
Stream size : 9.73 GiB (68%)
Writing library : x264 core 146 r2538kMod 121396c
Encoding settings : cabac=1 / ref=5 / deblock=1:-2:-2 / analyse=0x3:0x133 / me=umh / subme=11 / psy=1 / fade_compensate=0.00 / psy_rd=1.00:0.00 / mixed_ref=1 / me_range=32 / chroma_me=1 / trellis=2 / 8x8dct=1 / cqm=0 / deadzone=21,11 / fast_pskip=1 / chroma_qp_offset=-2 / threads=12 / lookahead_threads=2 / sliced_threads=0 / nr=0 / decimate=1 / interlaced=0 / bluray_compat=0 / constrained_intra=0 / fgo=0 / bframes=8 / b_pyramid=2 / b_adapt=2 / b_bias=0 / direct=1 / weightb=1 / open_gop=0 / weightp=2 / keyint=250 / keyint_min=23 / scenecut=40 / intra_refresh=0 / rc_lookahead=60 / rc=crf / mbtree=0 / crf=15.9000 / qcomp=0.70 / qpmin=0 / qpmax=69 / qpstep=4 / vbv_maxrate=62500 / vbv_bufsize=78125 / crf_max=0.0 / nal_hrd=none / filler=0 / ip_ratio=1.40 / pb_ratio=1.30 / aq=1:0.80
Language : English
Default : Yes
Forced : No
Color range : Limited
Color primaries : BT.709
Transfer characteristics : BT.709
Matrix coefficients : BT.709
Audio #1
ID : 2
Format : AC-3
Format/Info : Audio Coding 3
Mode extension : CM (complete main)
Format settings, Endianness : Big
Codec ID : A_AC3
Duration : 1h 58mn
Bit rate mode : Constant
Bit rate : 384 Kbps
Channel(s) : 6 channels
Channel positions : Front: L C R, Side: L R, LFE
Sampling rate : 48.0 KHz
Compression mode : Lossy
Stream size : 326 MiB (2%)
Title : Dub, iTunes+MVO
Language : Russian
Default : Yes
Forced : No
Audio #2
ID : 3
Format : AC-3
Format/Info : Audio Coding 3
Mode extension : CM (complete main)
Format settings, Endianness : Big
Codec ID : A_AC3
Duration : 1h 58mn
Bit rate mode : Constant
Bit rate : 384 Kbps
Channel(s) : 6 channels
Channel positions : Front: L C R, Side: L R, LFE
Sampling rate : 48.0 KHz
Compression mode : Lossy
Stream size : 326 MiB (2%)
Title : Baibako
Language : Russian
Default : No
Forced : No
Audio #3
ID : 4
Format : DTS
Format/Info : Digital Theater Systems
Mode : 16
Format settings, Endianness : Big
Codec ID : A_DTS
Duration : 1h 58mn
Bit rate mode : Constant
Bit rate : 1 509 Kbps
Channel(s) : 6 channels
Channel positions : Front: L C R, Side: L R, LFE
Sampling rate : 48.0 KHz
Bit depth : 16 bits
Compression mode : Lossy
Stream size : 1.25 GiB (9%)
Title : Есарев
Language : Russian
Default : No
Forced : No
Audio #4
ID : 5
Format : DTS
Format/Info : Digital Theater Systems
Mode : 16
Format settings, Endianness : Big
Codec ID : A_DTS
Duration : 1h 58mn
Bit rate mode : Constant
Bit rate : 1 509 Kbps
Channel(s) : 6 channels
Channel positions : Front: L C R, Side: L R, LFE
Sampling rate : 48.0 KHz
Bit depth : 16 bits
Compression mode : Lossy
Stream size : 1.25 GiB (9%)
Title : Карповский
Language : Russian
Default : No
Forced : No
Audio #5
ID : 6
Format : DTS
Format/Info : Digital Theater Systems
Mode : 16
Format settings, Endianness : Big
Codec ID : A_DTS
Duration : 1h 58mn
Bit rate mode : Constant
Bit rate : 1 509 Kbps
Channel(s) : 6 channels
Channel positions : Front: L C R, Side: L R, LFE
Sampling rate : 48.0 KHz
Bit depth : 16 bits
Compression mode : Lossy
Stream size : 1.25 GiB (9%)
Language : English
Default : No
Forced : No
Text #1
ID : 7
Format : UTF-8
Codec ID : S_TEXT/UTF8
Codec ID/Info : UTF-8 Plain Text
Title : Captions
Language : Russian
Default : Yes
Forced : No
Text #2
ID : 8
Format : UTF-8
Codec ID : S_TEXT/UTF8
Codec ID/Info : UTF-8 Plain Text
Language : Russian
Default : No
Forced : No
Text #3
ID : 9
Format : UTF-8
Codec ID : S_TEXT/UTF8
Codec ID/Info : UTF-8 Plain Text
Language : English
Default : No
Forced : No
Text #4
ID : 10
Format : UTF-8
Codec ID : S_TEXT/UTF8
Codec ID/Info : UTF-8 Plain Text
Title : SDH
Language : English
Default : No
Forced : No
Menu
00:00:00.000 : en:Chapter 1
00:09:20.059 : en:Chapter 2
00:20:16.048 : en:Chapter 3
00:30:49.639 : en:Chapter 4
00:42:07.149 : en:Chapter 5
00:52:05.997 : en:Chapter 6
01:02:17.775 : en:Chapter 7
01:13:22.981 : en:Chapter 8
01:24:57.258 : en:Chapter 9
01:36:17.062 : en:Chapter 10
01:48:36.676 : en:Chapter 11
01:51:39.275 : en:Chapter 12
xlog
raw [info]: 1920x800p 1:1 @ 24000/1001 fps (cfr)
x264 [info]: using SAR=1/1
x264 [info]: using cpu capabilities: MMX2 SSE2Fast SSSE3 SSE4.2 AVX
x264 [info]: profile High, level 4.1
x264 [info]: frame I:2085 Avg QP:13.62 size:238870
x264 [info]: frame P:36243 Avg QP:15.04 size:121260
x264 [info]: frame B:132459 Avg QP:17.11 size: 44234
x264 [info]: consecutive B-frames: 2.1% 2.2% 4.3% 30.1% 14.0% 35.1% 6.0% 5.6% 0.6%
x264 [info]: mb I I16..4: 3.2% 75.2% 21.6%
x264 [info]: mb P I16..4: 0.5% 25.2% 1.9% P16..4: 21.1% 28.7% 13.7% 3.8% 0.3% skip: 4.8%
x264 [info]: mb B I16..4: 0.1% 2.5% 0.2% B16..8: 35.9% 26.0% 5.4% direct: 7.7% skip:22.2% L0:42.1% L1:39.5% BI:18.4%
x264 [info]: 8x8 transform intra:89.0% inter:41.1%
x264 [info]: coded y,uvDC,uvAC intra: 97.8% 96.8% 90.7% inter: 42.3% 32.4% 10.4%
x264 [info]: i16 v,h,dc,p: 26% 8% 5% 61%
x264 [info]: i8 v,h,dc,ddl,ddr,vr,hd,vl,hu: 10% 8% 15% 10% 12% 11% 10% 12% 12%
x264 [info]: i4 v,h,dc,ddl,ddr,vr,hd,vl,hu: 13% 9% 6% 8% 15% 14% 13% 11% 12%
x264 [info]: i8c dc,h,v,p: 57% 14% 14% 15%
x264 [info]: Weighted P-Frames: Y:2.0% UV:1.3%
x264 [info]: ref P L0: 52.1% 10.2% 21.5% 7.9% 7.9% 0.4% 0.0%
x264 [info]: ref B L0: 84.9% 11.2% 2.9% 1.0%
x264 [info]: ref B L1: 95.4% 4.6%
x264 [info]: kb/s:12075.45
encoded 170787 frames, 4.67 fps, 12075.45 kb/s, duration 10:09:49.89
Скриншоты
Скачать

Скачать торрент!

Как скачивать? · Что такое торрент? · Рейтинг и ограничения

Сайт не распространяет и не хранит электронные версии произведений, а лишь предоставляет доступ к создаваемому пользователями каталогу ссылок на торрент-файлы, которые содержат только списки хеш-сумм

[Профиль] [ЛС]
Показать сообщения:    
Ответить на тему

Текущее время: Сегодня 18:28

Часовой пояс: GMT + 4



Вы не можете начинать темы
Вы не можете отвечать на сообщения
Вы не можете редактировать свои сообщения
Вы не можете удалять свои сообщения
Вы не можете голосовать в опросах
Вы не можете прикреплять файлы к сообщениям
Вы не можете скачивать файлы