Взломщики сердец / I Heart Huckabees (Дэвид О. Расселл / David O. Russell) [2004, США, Великобритания, Германия, комедия, WEB-DL 720p] MVO + Sub Rus, Eng + Original Eng

Ответить на тему
 
Автор Сообщение

user ®

Стаж: 7 лет 7 месяцев

Сообщений: 20008

Пост Пост: #1 от 05-Июл-2015 15:39

[Цитировать]

Взломщики сердец / I Heart Huckabees
Страна: США, Великобритания, Германия
Студия: Fox Searchlight Pictures, Qwerty Films, Kanzeon
Жанр: Комедия
Год выпуска: 2004
Продолжительность: 01:46:40
Перевод: Профессиональный (многоголосый закадровый)
Cубтитры: русские, английские
Оригинальная аудиодорожка: английский
Режиссер: Дэвид О. Расселл / David O. Russell
В ролях: Наоми Уоттс, Марк Уолберг, Джейсон Шварцман, Джуд Лоу, Дастин Хоффман, Лили Томлин, Изабель Юппер, Джона Хилл, Кевин Данн, Типпи Хедрен, Айла Фишер, Шанайя Твейн
Описание: Семейная пара Джеффов решила стать детективами по решению личных эмоциональных проблем. Их клиент — Альберт Марковски, мучимый страхами по поводу будущей карьеры в популярной розничной сети. В процессе расследования Джеффы знакомятся с коллегами и близкими Альберта и понимают, что все они тоже нуждаются в их помощи…
Сэмпл: https://yadi.sk/i/zzQK9E53hZNXz
Тип релиза: WEB-DL 720p
Контейнер: MKV
Видео: MPEG-4 AVC, 1280x542, 3860 Кбит/с, 23.976 fps
Аудио 1: Russian, AC3, 48 KHz, 6 ch, 448 Кбит/с
Аудио 2: English, AC3, 48 KHz, 6 ch, 448 Кбит/с
Аудио 3: English, AAC, 48 KHz, 2 ch, 65 Кбит/с (комментарии режиссера)
Аудио 4: English, AAC, 48 KHz, 2 ch, 65 Кбит/с (комментарии Дэвид О. Расселла, Джейсона Шварцмана, Марка Уолберга и Наоми Уоттс)
Формат субтитров: softsub (SRT)
MediaInfo
General
Unique ID : 235635864356224749102148651431118079521 (0xB145D114232C20CEA43AC5E6EF1D8621)
Complete name : I.Heart.Huckabees.2004.720p.WEB-DL.RUS.ENG.H264-FGT.mkv
Format : Matroska
Format version : Version 4 / Version 2
File size : 3.71 GiB
Duration : 1h 46mn
Overall bit rate : 4 972 Kbps
Movie name : I.Heart.Huckabees.2004.720p.WEB-DL.DD5.1.H264-FGT
Encoded date : UTC 2015-06-29 18:42:26
Writing application : mkvmerge v8.1.0 ('Psychedelic Postcard') 64bit
Writing library : libebml v1.3.1 + libmatroska v1.4.2
Attachements : small_cover.jpg / small_cover_land.jpg / cover.jpg / cover_land.jpg
DURATION : 01:41:07.276000000
NUMBER_OF_FRAMES : 1795
NUMBER_OF_BYTES : 111878
_STATISTICS_WRITING_APP : mkvmerge v8.1.0 ('Psychedelic Postcard') 64bit
_STATISTICS_WRITING_DATE_UTC : 2015-06-29 18:42:26
_STATISTICS_TAGS : BPS DURATION NUMBER_OF_FRAMES NUMBER_OF_BYTES
Video
ID : 1
Format : AVC
Format/Info : Advanced Video Codec
Format profile : Main@L3.1
Format settings, CABAC : No
Format settings, ReFrames : 2 frames
Codec ID : V_MPEG4/ISO/AVC
Duration : 1h 46mn
Bit rate : 3 860 Kbps
Width : 1 280 pixels
Height : 542 pixels
Display aspect ratio : 2.35:1
Frame rate mode : Constant
Frame rate : 23.976 fps
Color space : YUV
Chroma subsampling : 4:2:0
Bit depth : 8 bits
Scan type : Progressive
Title : I.Heart.Huckabees.2004.720p.WEB-DL.DD5.1.H264-FGT
Language : English
Default : Yes
Forced : No
Color range : Limited
Color primaries : BT.709
Transfer characteristics : BT.709
Matrix coefficients : BT.709
Audio #1
ID : 2
Format : AC-3
Format/Info : Audio Coding 3
Mode extension : CM (complete main)
Format settings, Endianness : Big
Codec ID : A_AC3
Duration : 1h 46mn
Bit rate mode : Constant
Bit rate : 448 Kbps
Channel(s) : 6 channels
Channel positions : Front: L C R, Side: L R, LFE
Sampling rate : 48.0 KHz
Bit depth : 16 bits
Compression mode : Lossy
Stream size : 342 MiB (9%)
Language : Russian
Default : Yes
Forced : No
Audio #2
ID : 3
Format : AC-3
Format/Info : Audio Coding 3
Mode extension : CM (complete main)
Format settings, Endianness : Big
Codec ID : A_AC3
Duration : 1h 46mn
Bit rate mode : Constant
Bit rate : 448 Kbps
Channel(s) : 6 channels
Channel positions : Front: L C R, Side: L R, LFE
Sampling rate : 48.0 KHz
Bit depth : 16 bits
Compression mode : Lossy
Stream size : 342 MiB (9%)
Language : English
Default : No
Forced : No
Audio #3
ID : 4
Format : AAC
Format/Info : Advanced Audio Codec
Format profile : HE-AAC / LC
Codec ID : A_AAC
Duration : 1h 46mn
Channel(s) : 2 channels
Channel positions : Front: L R
Sampling rate : 48.0 KHz / 24.0 KHz
Compression mode : Lossy
Delay relative to video : 31ms
Title : commentary by david o. russell
Language : English
Default : No
Forced : No
Audio #4
ID : 5
Format : AAC
Format/Info : Advanced Audio Codec
Format profile : HE-AAC / LC
Codec ID : A_AAC
Duration : 1h 46mn
Channel(s) : 2 channels
Channel positions : Front: L R
Sampling rate : 48.0 KHz / 24.0 KHz
Compression mode : Lossy
Delay relative to video : 31ms
Title : commentary by david o. russell, jason schwartzman, mark wahlberg and naomi watts
Language : English
Default : No
Forced : No
Text #1
ID : 6
Format : UTF-8
Codec ID : S_TEXT/UTF8
Codec ID/Info : UTF-8 Plain Text
Language : Russian
Default : Yes
Forced : No
Text #2
ID : 7
Format : UTF-8
Codec ID : S_TEXT/UTF8
Codec ID/Info : UTF-8 Plain Text
Language : English
Default : No
Forced : No
Menu
00:00:00.000 : en:you rock, rock
00:03:47.000 : en:vivian & bernard jaffe
00:08:04.000 : en:the blanket
00:12:56.000 : en:the investigation begins
00:17:20.000 : en:tommy's crisis
00:20:54.000 : en:brad, dawn & huckabees
00:24:07.000 : en:how to save the marsh
00:26:52.000 : en:he chopped her head off
00:31:51.000 : en:brad, albert & the detectives
00:34:21.000 : en:albert meets his other
00:40:31.000 : en:the african guy's family
00:47:20.000 : en:albert & tommy kicked out
00:50:35.000 : en:caterine vauban
00:54:57.000 : en:home of the coincidence
00:59:34.000 : en:tiny particles vs. tiny cracks
01:01:57.000 : en:quantity not quality
01:06:57.000 : en:the ball thing
01:11:13.000 : en:miss huckabees goes down
01:17:03.000 : en:human drama, tommy
01:19:48.000 : en:how am i not myself?
01:27:32.000 : en:destruction/creation
01:33:31.000 : en:convergence
01:39:41.000 : en:no manure, no magic
01:41:38.000 : en:end titles
Скриншот c названием фильма Скриншоты
Скачать

Скачать торрент!

Как скачивать? · Что такое торрент? · Рейтинг и ограничения

Сайт не распространяет и не хранит электронные версии произведений, а лишь предоставляет доступ к создаваемому пользователями каталогу ссылок на торрент-файлы, которые содержат только списки хеш-сумм

[Профиль] [ЛС]
Показать сообщения:    
Ответить на тему

Текущее время: Сегодня 00:40

Часовой пояс: GMT + 4



Вы не можете начинать темы
Вы не можете отвечать на сообщения
Вы не можете редактировать свои сообщения
Вы не можете удалять свои сообщения
Вы не можете голосовать в опросах
Вы не можете прикреплять файлы к сообщениям
Вы не можете скачивать файлы