Брат (Алексей Балабанов) [1997, боевик, драма, криминал, DVDRip]

Ответить на тему
 
Автор Сообщение

user ®

Стаж: 7 лет 7 месяцев

Сообщений: 20008

Пост Пост: #1 от 04-Июл-2015 18:00

[Цитировать]

Брат
Жанр: Боевик, драма, криминал
Год выпуска: 1997
Продолжительность: 01:35:27
Режиссёр: Алексей Балабанов
В ролях: Сергей Бодров мл., Виктор Сухоруков, Светлана Письмиченко, Мария Жукова, Юрий Кузнецов, Андрей Краско, Вячеслав Бутусов, Игорь Лифанов, Ирина Ракшина, Сергей Мурзин, Анатолий Журавлев, Игорь Шибанов, Андрей Федорцов, Алексей Севостьянов (II), Владимир Ермилов, Денис Кириллов, Виталий Матвеев, Василина Стрельникова, Татьяна Захарова, Сергей Дебижев, Константин Анисимов
Описание: Демобилизованный из армии, Данила Багров вернулся в родной городок. Но скучная жизнь российской провинции не устраивала его, и он решился податься в Петербург, где, по слухам, уже несколько лет процветает его старший брат. Данила нашел брата. Но все оказалось не так просто - брат был наемным убийцей...
Доп. информация:
Сэмпл: http://multi-up.com/1056903
Формат видео: AVI
Качество видео: DVDRip (DVD5)
Видео: XviD, 688х384, 25fps, 956kbps
Аудио: MPEG Layer 3, 2ch, 48000Hz, 128kbps
MediaInfo
General
Complete name : Brat.1.1997.O.DVDRip.700.MediaClub.CurHaJI.avi
Format : AVI
Format/Info : Audio Video Interleave
File size : 747 MiB
Duration : 1h 35mn
Overall bit rate : 1 094 Kbps
Movie name : Brat.1.1997.O.DVDRip.700.MediaClub.CurHaJI
Writing application : VirtualDubMod 1.5.10.3 | www.virtualdub-fr.org || (build 2550/release)
Writing library : VirtualDub build 35491/release
Video
ID : 0
Format : MPEG-4 Visual
Format profile : Advanced Simple@L5
Format settings, BVOP : 2
Format settings, QPel : No
Format settings, GMC : No warppoints
Format settings, Matrix : Custom
Codec ID : XVID
Codec ID/Hint : XviD
Duration : 1h 35mn
Bit rate : 956 Kbps
Width : 688 pixels
Height : 384 pixels
Display aspect ratio : 16:9
Frame rate : 25.000 fps
Color space : YUV
Chroma subsampling : 4:2:0
Bit depth : 8 bits
Scan type : Progressive
Compression mode : Lossy
Bits/(Pixel*Frame) : 0.145
Stream size : 653 MiB (87%)
Writing library : XviD 64
Audio
ID : 1
Format : MPEG Audio
Format version : Version 1
Format profile : Layer 3
Codec ID : 55
Codec ID/Hint : MP3
Duration : 1h 35mn
Bit rate mode : Constant
Bit rate : 128 Kbps
Channel(s) : 2 channels
Sampling rate : 48.0 KHz
Compression mode : Lossy
Stream size : 87.3 MiB (12%)
Alignment : Aligned on interleaves
Interleave, duration : 40 ms (1.00 video frame)
Interleave, preload duration : 504 ms
Writing library : L3.99r
Encoding settings : -m s -V 4 -q 2 -lowpass 17 -b 128
Скриншоты
Скачать

Скачать торрент!

Как скачивать? · Что такое торрент? · Рейтинг и ограничения

Сайт не распространяет и не хранит электронные версии произведений, а лишь предоставляет доступ к создаваемому пользователями каталогу ссылок на торрент-файлы, которые содержат только списки хеш-сумм

[Профиль] [ЛС]
Показать сообщения:    
Ответить на тему

Текущее время: Сегодня 15:31

Часовой пояс: GMT + 4



Вы не можете начинать темы
Вы не можете отвечать на сообщения
Вы не можете редактировать свои сообщения
Вы не можете удалять свои сообщения
Вы не можете голосовать в опросах
Вы не можете прикреплять файлы к сообщениям
Вы не можете скачивать файлы