Чучело-Мяучело (Инесса Ковалевская) [1982 г., мультфильм, DVB]

Ответить на тему
 
Автор Сообщение

user ®

Стаж: 7 лет 7 месяцев

Сообщений: 20008

Пост Пост: #1 от 03-Июл-2015 23:21

[Цитировать]

Чучело-Мяучело
Страна: СССР, Союзмультфильм
Жанр: мультфильм
Год выпуска: 1982
Продолжительность: 00:09:10
Режиссёр: Инесса Ковалевская
Описание: мультфильм о том как о том, как Чучело-Мяучело показывает, что песня и хорошее настроение всегда помогают в работе ...
Доп. информация:

Релиз группы:
Трансляция спутникового канала:

Качество видео: DVB
Формат видео: MPEG-PS
Видео: MPEG2 Video, 720x576 (4:3), 25 fps, 3200 kbps
Аудио: MPEG Audiо, 2 сh, 48 kHz, 192 kbps
Сравнение
[url=http://***/forum/viewtopic.php?t=3689824]http://***/forum/viewtopic.php?t=3689824[/url]
http://screenshotcomparison.com/comparison/133569
[url=http://***/forum/viewtopic.php?t=195536]http://***/forum/viewtopic.php?t=195536[/url]
http://screenshotcomparison.com/comparison/133570
[url=http://***/forum/viewtopic.php?t=3644263]http://***/forum/viewtopic.php?t=3644263[/url]
http://screenshotcomparison.com/comparison/133571
MediaInfo
General
Complete name : D:\Чучело-Мяучело. (1982)_DVB by SLuMeP.mpg
Format : MPEG-PS
File size : 227 MiB
Duration : 9mn 10s
Overall bit rate mode : Variable
Overall bit rate : 3 463 Kbps
Video
ID : 224 (0xE0)
Format : MPEG Video
Format version : Version 2
Format profile : Main@Main
Format settings, BVOP : No
Format settings, Matrix : Custom
Format settings, GOP : M=3, N=12
Duration : 9mn 10s
Bit rate mode : Variable
Bit rate : 3 202 Kbps
Maximum bit rate : 5 000 Kbps
Width : 720 pixels
Height : 576 pixels
Display aspect ratio : 4:3
Frame rate : 25.000 fps
Standard : PAL
Color space : YUV
Chroma subsampling : 4:2:0
Bit depth : 8 bits
Scan type : Interlaced
Scan order : Top Field First
Compression mode : Lossy
Bits/(Pixel*Frame) : 0.309
Time code of first frame : 00:00:00:00
Time code source : Group of pictures header
Stream size : 210 MiB (92%)
Audio
ID : 192 (0xC0)
Format : MPEG Audio
Format version : Version 1
Format profile : Layer 2
Duration : 9mn 10s
Bit rate mode : Constant
Bit rate : 192 Kbps
Channel(s) : 2 channels
Sampling rate : 48.0 KHz
Compression mode : Lossy
Stream size : 12.6 MiB (6%)
Скриншоты
Скачать

Скачать торрент!

Как скачивать? · Что такое торрент? · Рейтинг и ограничения

Сайт не распространяет и не хранит электронные версии произведений, а лишь предоставляет доступ к создаваемому пользователями каталогу ссылок на торрент-файлы, которые содержат только списки хеш-сумм

[Профиль] [ЛС]
Показать сообщения:    
Ответить на тему

Текущее время: Сегодня 06:26

Часовой пояс: GMT + 4



Вы не можете начинать темы
Вы не можете отвечать на сообщения
Вы не можете редактировать свои сообщения
Вы не можете удалять свои сообщения
Вы не можете голосовать в опросах
Вы не можете прикреплять файлы к сообщениям
Вы не можете скачивать файлы