Похищение Фредди Хайнекена / Kidnapping Mr. Heineken (Даниэль Альфредсон / Daniel Alfredson) [2015, Нидерланды, Великобритания, Бельгия, триллер, криминал, BDRip-AVC] Dub + Original (Eng)

Ответить на тему
 
Автор Сообщение

user ®

Стаж: 8 лет 2 месяца

Сообщений: 20008

Пост Пост: #1 от 03-Июл-2015 01:42

[Цитировать]

Похищение Фредди Хайнекена
Kidnapping Mr. Heineken
«It was the perfect crime until they got way with it»


Страна: Нидерланды, Великобритания, Бельгия
Жанр: триллер, криминал
Год выпуска: 2015
Продолжительность: 01:34:35
Перевод: Профессиональный (полное дублирование) [Лицензия]
Cубтитры: нет
Оригинальная аудиодорожка: английский
Режиссер: Даниэль Альфредсон / Daniel Alfredson
В ролях: Джим Стёрджесс, Сэм Уортингтон, Райан Квантен, Энтони Хопкинс, Марк ван Эувен, Томас Кокерел, Джемайма Уэст, Давид Денсик, Вера Ван Дорен, Кэт Линдсей, Рой МакКрири, Винс Канлас
Описание:
Осенью 1983 года Амстердам был потрясен одним из самых известных и дерзких преступлений 20 века: владелец одной из крупнейших в мире пивоварен Heineken - Альфред Хайнекен - был похищен вместе с личным шофером прямо из собственного автомобиля. Несколько друзей, которым очень нужны были деньги, решили не мелочиться и заработать много и сразу, похитив одного из самых богатых людей в стране. Проведя тщательную подготовку, свои намерения они осуществили. Преступники требовали у родственников в качестве выкупа сумасшедшую по тем временам сумму - 35 млн. голландских гульденов (около 16 млн. евро). Взамен обещали сохранить жизни обоим.

Релиз:
Автор рипа: Stalker oK
Сэмпл
Качество видео: BDRip-AVC [Blu-ray Remux 1080p-kinozal]
Формат видео: MKV
Видео кодек: AVC
Аудио кодек: AC3
Видео: 1429 Кбит/сек, 960x402 (2.35:1), 23,976 кадр/сек, AVC
Аудио №1: русский, 384 Кбит/сек, 48 КГц, 16 бит, 5.1, AC3
Аудио №2: английский, 384 Кбит/сек, 48 КГц, 16 бит, 5.1, AC3
Навигация по главам: есть

MediaInfo
General
Unique ID : 191553010407974780012225472623156092959 (0x901BC493030D106D8D1D431607FB601F)
Complete name : M:\Рипы\Похищение Фредди Хайнекена\Kidnapping.Mr.Heineken.2015.BDRip-AVC.Dub.1.45Gb...stalkerok.new-team.mkv
Format : Matroska
File size : 1.45 GiB
Duration : 1h 34mn
Overall bit rate : 2 198 Kbps
Movie name : Kidnapping Mr. Heineken, 2015 (New-Team) (Rip by Stalker oK)
Encoded date : UTC 2015-07-02 18:22:43
Writing application : mkvmerge v7.9.0 ('Birds') 64bit
Writing library : libebml v1.3.1 + libmatroska v1.4.2
Video
ID : 1
Format : AVC
Format/Info : Advanced Video Codec
Format profile : High@L4.1
Format settings, CABAC : Yes
Format settings, ReFrames : 12 frames
Codec ID : V_MPEG4/ISO/AVC
Duration : 1h 34mn
Bit rate : 1 429 Kbps
Width : 960 pixels
Height : 402 pixels
Display aspect ratio : 2.35:1
Frame rate : 23.976 fps
Color space : YUV
Chroma subsampling : 4:2:0
Bit depth : 8 bits
Scan type : Progressive
Bits/(Pixel*Frame) : 0.154
Stream size : 938 MiB (63%)
Title : Kidnapping Mr. Heineken, 2015 (New-Team) (Rip by Stalker oK)
Writing library : x264 core 146 r2538kMod 121396c
Encoding settings : cabac=1 / ref=12 / deblock=1:-2:-1 / analyse=0x3:0x133 / me=umh / subme=11 / psy=1 / fade_compensate=0.00 / psy_rd=1.10:0.10 / mixed_ref=1 / me_range=32 / chroma_me=1 / trellis=2 / 8x8dct=1 / cqm=0 / deadzone=21,11 / fast_pskip=0 / chroma_qp_offset=-3 / threads=12 / lookahead_threads=3 / sliced_threads=0 / nr=0 / decimate=0 / interlaced=0 / bluray_compat=0 / constrained_intra=0 / fgo=0 / bframes=14 / b_pyramid=2 / b_adapt=2 / b_bias=0 / direct=3 / weightb=1 / open_gop=0 / weightp=2 / keyint=240 / keyint_min=23 / scenecut=40 / intra_refresh=0 / rc_lookahead=40 / rc=2pass / mbtree=0 / bitrate=1429 / ratetol=1.0 / qcomp=0.70 / qpmin=0 / qpmax=69 / qpstep=4 / cplxblur=20.0 / qblur=0.5 / vbv_maxrate=50000 / vbv_bufsize=62500 / nal_hrd=none / filler=0 / ip_ratio=1.40 / pb_ratio=1.30 / aq=3:0.80
Audio #1
ID : 2
Format : AC-3
Format/Info : Audio Coding 3
Mode extension : CM (complete main)
Codec ID : A_AC3
Duration : 1h 34mn
Bit rate mode : Constant
Bit rate : 384 Kbps
Channel(s) : 6 channels
Channel positions : Front: L C R, Side: L R, LFE
Sampling rate : 48.0 KHz
Bit depth : 16 bits
Compression mode : Lossy
Stream size : 260 MiB (17%)
Language : Russian
Audio #2
ID : 3
Format : AC-3
Format/Info : Audio Coding 3
Mode extension : CM (complete main)
Codec ID : A_AC3
Duration : 1h 34mn
Bit rate mode : Constant
Bit rate : 384 Kbps
Channel(s) : 6 channels
Channel positions : Front: L C R, Side: L R, LFE
Sampling rate : 48.0 KHz
Bit depth : 16 bits
Compression mode : Lossy
Stream size : 260 MiB (17%)
Language : English
Menu
00:00:00.000 : en:Chapter 1
00:16:08.634 : en:Chapter 2
00:32:23.106 : en:Chapter 3
00:44:01.347 : en:Chapter 4
00:58:45.021 : en:Chapter 5
01:10:27.264 : en:Chapter 6
01:22:26.064 : en:Chapter 7
01:29:16.809 : en:Chapter 8
Скриншоты
Скачать

Скачать торрент!

Как скачивать? · Что такое торрент? · Рейтинг и ограничения

Сайт не распространяет и не хранит электронные версии произведений, а лишь предоставляет доступ к создаваемому пользователями каталогу ссылок на торрент-файлы, которые содержат только списки хеш-сумм

[Профиль] [ЛС]
Показать сообщения:    
Ответить на тему

Текущее время: Сегодня 00:38

Часовой пояс: GMT + 4



Вы не можете начинать темы
Вы не можете отвечать на сообщения
Вы не можете редактировать свои сообщения
Вы не можете удалять свои сообщения
Вы не можете голосовать в опросах
Вы не можете прикреплять файлы к сообщениям
Вы не можете скачивать файлы