Темная сторона желания 2 / Страсть 2 / Jism 2 (Пуджа Бхатт / Pudja Bhatt) [2012, Индия, Триллер, драма, мелодрама, HDRip] MVO (SDI Media)

Ответить на тему
 
Автор Сообщение

user ®

Стаж: 12 лет

Сообщений: 15092

Пост Пост: #1 от 02-Июл-2015 13:18

[Цитировать]

Темная сторона желания 2 / Страсть 2 / Jism 2
Страна: Индия
Жанр: Триллер, драма, мелодрама
Год выпуска: 2012
Продолжительность: 02:09:42
Перевод: Профессиональный (многоголосый закадровый) SDI Media
Cубтитры: русские (вшитые, только на тексты песен)
Режиссер: Пуджа Бхатт / Pudja Bhatt
В ролях: Рандип Худа, Санни Леоне, Арунодай Синкх, Джунайид Бин Фахрул, Имран Заид, Ариф Закария
Описание: Меня зовут Изна. Я порнозвезда. Всю свою жизнь моё тело развлекало людей. А сегодня я умираю в полном одиночестве. Но перед смертью я обязана кое-что сделать. Я должна у одного человека попросить прощения за свои ошибки. Но сможет ли он меня простить? Или после смерти я вечно буду гореть в аду? Этому положила начало любовь. Любовь.
Доп. информация: Исходник BDRip (1080p) (СПАСИБО! jasinpapa)
Перевод песен на русский язык: Анджелина Бондарчук (Спасибо!)
Синхронизация звука: soso4eg (Спасибо!)
Сэмпл: http://multi-up.com/1056655
Качество видео: HDRip
Формат видео: AVI
Видео: XviD build 50, 672x288 (2.33:1), 24.000 fps, 1474 kbps avg
Аудио: MPEG Layer 3, 48 kHz, 2/0 (L,R) ch, 128.00 kbps avg
MediaInfo
General
Complete name : F:\Temnaya.Storona.Strasti-2.2012.P.HDRip.XviD-soso4eg.avi
Format : AVI
Format/Info : Audio Video Interleave
File size : 1.46 GiB
Duration : 2h 9mn
Overall bit rate : 1 612 Kbps
Writing application : VirtualDubMod 1.5.10.2 (build 2540/release)
Writing library : VirtualDubMod build 2540/release
Video
ID : 0
Format : MPEG-4 Visual
Format profile : AdvancedSimple@L5
Format settings, BVOP : Yes
Format settings, QPel : No
Format settings, GMC : No warppoints
Format settings, Matrix : Default (MPEG)
Codec ID : XVID
Codec ID/Hint : XviD
Duration : 2h 9mn
Bit rate : 1 474 Kbps
Width : 672 pixels
Height : 288 pixels
Display aspect ratio : 2.35
Frame rate : 24.000 fps
Resolution : 24 bits
Colorimetry : 4:2:0
Scan type : Progressive
Bits/(Pixel*Frame) : 0.317
Stream size : 1.34 GiB (91%)
Writing library : XviD 1.2.1 (UTC 2008-12-04)
Audio
ID : 1
Format : MPEG Audio
Format version : Version 1
Format profile : Layer 3
Codec ID : 55
Codec ID/Hint : MP3
Duration : 2h 9mn
Bit rate mode : Constant
Bit rate : 128 Kbps
Channel(s) : 2 channels
Sampling rate : 48.0 KHz
Resolution : 16 bits
Stream size : 119 MiB (8%)
Alignment : Aligned on interleaves
Interleave, duration : 42 ms (1.00 video frame)
Interleave, preload duration : 504 ms
Скриншот c названием фильма Скриншоты 02.07.2015 Торрент-файл обновлен, заменен любительский многоголосый перевод (ICG) на профессиональный многоголосый (SDI Media)
Скачать

Скачать торрент! Темная сторона желания 2 / Страсть 2 / Jism 2 (Пуджа Бхатт / Pudja Bhatt) [2012, Индия, Триллер, драма, мелодрама, HDRip] MVO (SDI Media)

Как скачивать? · Что такое торрент? · Рейтинг и ограничения

Сайт не распространяет и не хранит электронные версии произведений, а лишь предоставляет доступ к создаваемому пользователями каталогу ссылок на торрент-файлы, которые содержат только списки хеш-сумм

[Профиль] [ЛС]
Показать сообщения:    
Ответить на тему

Текущее время: Сегодня 05:52

Часовой пояс: GMT + 4



Вы не можете начинать темы
Вы не можете отвечать на сообщения
Вы не можете редактировать свои сообщения
Вы не можете удалять свои сообщения
Вы не можете голосовать в опросах
Вы не можете прикреплять файлы к сообщениям
Вы не можете скачивать файлы