Из Вегаса в Макао 2 / From Vegas to Macau II / Ao Men feng yun 2 (Цзин Вон / Jing Wong) [2015, Китай, Гонконг, комедия, боевик, BDRip-AVC] VO (den904) + Sub Eng + Original Chi

Ответить на тему
 
Автор Сообщение

user ®

Стаж: 13 лет

Сообщений: 15071

Пост Пост: #1 от 01-Июл-2015 00:12

[Цитировать]

Из Вегаса в Макао 2 / From Vegas to Macau II / Ao Men feng yun 2
Страна: Китай, Гонконг
Студия: Bona International Film Group, Media Asia Films, Mega-Vision Pictures (MVP)
Жанр: комедия, боевик
Год выпуска: 2015
Продолжительность: 01:50:14
Перевод: Одноголосый закадровый den904
Cубтитры: английские
Оригинальная аудиодорожка: китайский
Режиссер: Цзин Вон / Jing Wong
В ролях: Ник Чунг, Чоу Юнь-Фат, Дэниэл Гарсиа, Энди Лау, Карина Лау, Мэтт Тотти, Шон Юе, Светлана Завьялова.
Описание: Вторая часть искрометной комедии, где главные действующие лица - заядлые и азартные мастера карточных игр.
II Сэмпл II IMDB II
Релиз группа:

Качество видео: BDRip-AVC (From.Vegas.to.Macau.II.2015.1080p.BluRay.AVC.TrueHD.7.1)
Формат видео: MKV
Видео: AVC / 1152x480 / 2.40:1 / 24.0fps / Bit rate 2700Kbps / b/p 0.203
Аудио 1: AC3 / 48.0KHz / 2ch. / 192kbps / rus / vo / den904
Аудио 2: AC3 / 48.0KHz / 6ch. / 448kbps / chi / Cantonese
Аудио 3: AC3 / 48.0KHz / 6ch. / 448kbps / chi / Mandarin
Формат субтитров: softsub (SRT)
MediaInfo
Общее
Уникальный идентификатор : 189849288089880951198028819685313487156 (0x8ED3A494215FF2538E6444E3755E2134)
Полное имя : D:\torrent\From.Vegas.to.Macau.II.2015.BDRip-AVC_by_vedigo.mkv
Формат : Matroska
Версия формата : Version 4 / Version 2
Размер файла : 2,92 Гбайт
Продолжительность : 1 ч. 50 м.
Общий поток : 3788 Кбит/сек
Дата кодирования : UTC 2015-06-30 04:54:07
Программа кодирования : mkvmerge v8.1.0 ('Psychedelic Postcard') 64bit
Библиотека кодирования : libebml v1.3.1 + libmatroska v1.4.2
DURATION : 01:45:17.290000000
NUMBER_OF_FRAMES : 1571
NUMBER_OF_BYTES : 35032
_STATISTICS_WRITING_APP : mkvmerge v8.1.0 ('Psychedelic Postcard') 64bit
_STATISTICS_WRITING_DATE_UTC : 2015-06-30 04:54:07
_STATISTICS_TAGS : BPS DURATION NUMBER_OF_FRAMES NUMBER_OF_BYTES
Видео
Идентификатор : 1
Формат : AVC
Формат/Информация : Advanced Video Codec
Профиль формата : High@L4.1
Параметр CABAC формата : Да
Параметр ReFrames формата : 15 кадров
Идентификатор кодека : V_MPEG4/ISO/AVC
Продолжительность : 1 ч. 50 м.
Битрейт : 2700 Кбит/сек
Ширина : 1152 пикселя
Высота : 480 пикселей
Соотношение сторон : 2,40:1
Режим частоты кадров : Постоянный
Частота кадров : 24,000 кадра/сек
Цветовое пространство : YUV
Субдискретизация насыщенности : 4:2:0
Битовая глубина : 8 бит
Тип развёртки : Прогрессивная
Бит/(Пиксели*Кадры) : 0.203
Размер потока : 2,02 Гбайт (69%)
Заголовок : From.Vegas.to.Macau.II.2015.BDRip-AVC_by_vedigo
Библиотека кодирования : x264 core 146 r2538 121396c
Настройки программы : cabac=1 / ref=15 / deblock=1:-3:-3 / analyse=0x3:0x133 / me=umh / subme=11 / psy=1 / psy_rd=1.00:0.10 / mixed_ref=1 / me_range=32 / chroma_me=1 / trellis=2 / 8x8dct=1 / cqm=0 / deadzone=21,11 / fast_pskip=0 / chroma_qp_offset=-3 / threads=12 / lookahead_threads=2 / sliced_threads=0 / nr=0 / decimate=1 / interlaced=0 / bluray_compat=0 / constrained_intra=0 / bframes=8 / b_pyramid=2 / b_adapt=2 / b_bias=0 / direct=3 / weightb=1 / open_gop=0 / weightp=2 / keyint=250 / keyint_min=23 / scenecut=40 / intra_refresh=0 / rc_lookahead=40 / rc=2pass / mbtree=0 / bitrate=2700 / ratetol=1.0 / qcomp=0.60 / qpmin=0 / qpmax=69 / qpstep=4 / cplxblur=20.0 / qblur=0.5 / vbv_maxrate=50000 / vbv_bufsize=62500 / nal_hrd=none / filler=0 / ip_ratio=1.40 / pb_ratio=1.30 / aq=1:1.00
Default : Да
Forced : Нет
DURATION : 01:50:14.506000000
NUMBER_OF_FRAMES : 158748
NUMBER_OF_BYTES : 2230171438
_STATISTICS_WRITING_APP : mkvmerge v8.1.0 ('Psychedelic Postcard') 64bit
_STATISTICS_WRITING_DATE_UTC : 2015-06-30 04:54:07
_STATISTICS_TAGS : BPS DURATION NUMBER_OF_FRAMES NUMBER_OF_BYTES
Аудио #1
Идентификатор : 2
Формат : AC-3
Формат/Информация : Audio Coding 3
Расширение режима : CM (complete main)
Параметр Endianness формата : Big
Идентификатор кодека : A_AC3
Продолжительность : 1 ч. 50 м.
Вид битрейта : Постоянный
Битрейт : 192 Кбит/сек
Каналы : 2 канала
Расположение каналов : Front: L R
Частота : 48,0 КГц
Метод сжатия : С потерями
Размер потока : 151 Мбайт (5%)
Заголовок : rus / dvo / 2D
Язык : Russian
Default : Да
Forced : Нет
Аудио #2
Идентификатор : 3
Формат : AC-3
Формат/Информация : Audio Coding 3
Расширение режима : CM (complete main)
Параметр Endianness формата : Big
Идентификатор кодека : A_AC3
Продолжительность : 1 ч. 50 м.
Вид битрейта : Постоянный
Битрейт : 448 Кбит/сек
Каналы : 6 каналов
Расположение каналов : Front: L C R, Side: L R, LFE
Частота : 48,0 КГц
Метод сжатия : С потерями
Размер потока : 353 Мбайт (12%)
Заголовок : chi / Cantonese
Язык : Chinese
Default : Нет
Forced : Нет
Аудио #3
Идентификатор : 4
Формат : AC-3
Формат/Информация : Audio Coding 3
Расширение режима : CM (complete main)
Параметр Endianness формата : Big
Идентификатор кодека : A_AC3
Продолжительность : 1 ч. 50 м.
Вид битрейта : Постоянный
Битрейт : 448 Кбит/сек
Каналы : 6 каналов
Расположение каналов : Front: L C R, Side: L R, LFE
Частота : 48,0 КГц
Метод сжатия : С потерями
Размер потока : 353 Мбайт (12%)
Заголовок : chi / Mandarin
Язык : Chinese
Default : Нет
Forced : Нет
Текст
Идентификатор : 5
Формат : UTF-8
Идентификатор кодека : S_TEXT/UTF8
Идентификатор кодека/Информация : UTF-8 Plain Text
Заголовок : subtitle eng
Язык : English
Default : Нет
Forced : Нет
Меню
00:00:00.000 : :00:00:00.000
00:10:34.958 : :00:10:34.958
00:19:31.083 : :00:19:31.083
00:27:38.583 : :00:27:38.583
00:36:14.458 : :00:36:14.458
00:46:01.958 : :00:46:01.958
00:55:26.958 : :00:55:26.958
01:03:06.167 : :01:03:06.167
01:12:28.792 : :01:12:28.792
01:23:58.542 : :01:23:58.542
01:30:17.000 : :01:30:17.000
01:38:54.958 : :01:38:54.958
Скриншот c названием фильма Скриншоты
Скачать

Скачать торрент! Из Вегаса в Макао 2 / From Vegas to Macau II / Ao Men feng yun 2 (Цзин Вон / Jing Wong) [2015, Китай, Гонконг, комедия, боевик, BDRip-AVC] VO (den904) + Sub Eng + Original Chi

Как скачивать? · Что такое торрент? · Рейтинг и ограничения

Сайт не распространяет и не хранит электронные версии произведений, а лишь предоставляет доступ к создаваемому пользователями каталогу ссылок на торрент-файлы, которые содержат только списки хеш-сумм

[Профиль] [ЛС]
Показать сообщения:    
Ответить на тему

Текущее время: Сегодня 21:29

Часовой пояс: GMT + 4



Вы не можете начинать темы
Вы не можете отвечать на сообщения
Вы не можете редактировать свои сообщения
Вы не можете удалять свои сообщения
Вы не можете голосовать в опросах
Вы не можете прикреплять файлы к сообщениям
Вы не можете скачивать файлы