Ланестер / Lanester (Франк Манкузо / Franck Mancuso) [2013, Франция, детектив, триллер, экранизация, HDTV 1080i] MVO

Ответить на тему
 
Автор Сообщение

user ®

Стаж: 7 лет 7 месяцев

Сообщений: 20008

Пост Пост: #1 от 30-Июн-2015 14:54

[Цитировать]

Ланестер / Lanester
Страна: Франция
Жанр: детектив, триллер, экранизация
Год выпуска: 2013
Продолжительность: 01:37:27
Перевод: Профессиональный (многоголосый закадровый)
Cубтитры: нет
Режиссер: Франк Манкузо / Franck Mancuso
В ролях: Ришар Берри, Эмма де Кон, Ипполит Жирардо, Бруно Саломон, Никки Марбо, Изабель Канделье, Агнес Бланшо, Махер Камун, Джианн Бурно, Фарид Элуарди
Описание: В западной части Парижа два, а вскоре и три преступления совершаются по одному и тому же загадочному сценарию. Каждый раз жертва является объектом какой-то жуткой постановки. Обнаружив одну из них, командующий полиции Эрик Ланестер теряет зрение и… направление расследования. Благодаря своевременной помощи молодой женщины — водителя такси, полицейский собирается, тем не менее, продолжить своё расследование вслепую. Но эта затея заводит его слишком далеко..
Сэмпл: http://sendfile.su/1132841
Кинопоиск: http://www.kinopoisk.ru/film/737592/
Тип релиза: HDTV 1080i
Контейнер: TS
Видео: AVC/H.264, 1920x1080 (16:9), 7320 Кбит/сек, 25.000 fps
Аудио: русский, MP2, 2ch, 48,0 КГц, 192 Кбит/сек
MediaInfo
Общее
Идентификатор : 1 (0x1)
Полное имя : C:\Documents and Settings\User\Рабочий стол\Ланестер.ts
Формат : MPEG-TS
Размер файла : 5,38 Гбайт
Продолжительность : 1 ч. 37 м.
Режим общего битрейта : Переменный
Общий поток : 7905 Кбит/сек
Максимальный общий битрейт : 35,5 Мбит/сек
Видео
Идентификатор : 4113 (0x1011)
Идентификатор меню : 1 (0x1)
Формат : AVC
Формат/Информация : Advanced Video Codec
Профиль формата : Main@L4.0
Параметр CABAC формата : Да
Параметр ReFrames формата : 3 кадра
Идентификатор кодека : 27
Продолжительность : 1 ч. 37 м.
Вид битрейта : Переменный
Битрейт : 7320 Кбит/сек
Максимальный битрейт : 40,0 Мбит/сек
Ширина : 1920 пикселей
Высота : 1080 пикселей
Соотношение сторон : 16:9
Частота кадров : 25,000 кадров/сек
Стандарт вещания : Component
Цветовое пространство : YUV
Субдискретизация насыщенности : 4:2:0
Битовая глубина : 8 бит
Тип развёртки : Чересстрочная
Порядок развёртки : Верхнее поле первое
Бит/(Пиксели*Кадры) : 0.141
Размер потока : 4,98 Гбайт (93%)
colour_range : Limited
Аудио
Идентификатор : 4352 (0x1100)
Идентификатор меню : 1 (0x1)
Формат : MPEG Audio
Версия формата : Version 1
Профиль формата : Layer 2
Идентификатор кодека : 4
Продолжительность : 1 ч. 37 м.
Вид битрейта : Постоянный
Битрейт : 192 Кбит/сек
Каналы : 2 канала
Частота : 48,0 КГц
Метод сжатия : С потерями
Размер потока : 134 Мбайт (2%)
Язык : Russian
Скриншот с названием фильма Скриншоты
Скачать

Скачать торрент!

Как скачивать? · Что такое торрент? · Рейтинг и ограничения

Сайт не распространяет и не хранит электронные версии произведений, а лишь предоставляет доступ к создаваемому пользователями каталогу ссылок на торрент-файлы, которые содержат только списки хеш-сумм

[Профиль] [ЛС]
Показать сообщения:    
Ответить на тему

Текущее время: Сегодня 00:11

Часовой пояс: GMT + 4



Вы не можете начинать темы
Вы не можете отвечать на сообщения
Вы не можете редактировать свои сообщения
Вы не можете удалять свои сообщения
Вы не можете голосовать в опросах
Вы не можете прикреплять файлы к сообщениям
Вы не можете скачивать файлы