Вне времени / The Lovers (Роланд Жоффе / Roland Joffé) [2013, Австралия, Великобритания, фантастика, боевик, мелодрама, приключения, BDRip 720p] Dub (iTunes) + Sub Eng + Original Eng

Ответить на тему
 
Автор Сообщение

user ®

Стаж: 7 лет 7 месяцев

Сообщений: 20008

Пост Пост: #1 от 30-Июн-2015 14:54

[Цитировать]

Вне времени / The Lovers
Страна: Австралия, Великобритания
Студия: Bliss Media
Жанр: Фантастика, боевик, мелодрама, приключения
Год выпуска: 2013
Продолжительность: 01:49:21
Перевод: Профессиональный (дублированный) iTunes
Cубтитры: английские
Оригинальная аудиодорожка: английский
Режиссер: Роланд Жоффе / Roland Joffé
В ролях: Джош Хартнетт, Тэмзин Эджертон, Элис Энглерт, Клер ван дер Бом, Махеш Джаду, Ом Пури, Симона Кэссел, Темина Санни, Бипаша Басу, Андреа Дэк
Описание: На Большом Барьерном рифе семейную пару постигло страшное несчастье. Археолог-подводник Джей Финнел вместе с женой исследует торговое судно XVIII века, затонувшее при таинственных обстоятельствах. Во время погружения происходит несчастный случай, и жена Джея начинает тонуть. Пытаясь спасти её, он получает серьезное ранение, которое приводит к коме.
Борясь со смертью, герой переступает границы реальности и переносится в Индию 1778 года. В другом, незнакомом ему мире, он начинает жить жизнью британского офицера Джеймса Стюарта, поглощенного страстью к прекрасной женщине. Что же выберет Джей: остаться в мире прошлого и сражаться за любовь воительницы Туладжи или вернуться в реальный мир и бороться за собственную жизнь?
Доп.информация: За предоставленный Blu-Ray диск благодарность L'

Тип релиза: BDRip 720p
Контейнер: MKV
Видео: MPEG-4 AVC, 7548 Кбит/с, 1280x534, 23,976 fps
Аудио: Rus, AC3, 384 kb/s (6 ch), 48 kHz
Аудио 2: Eng, DTS, 1510 kb/s (6 ch), 48 kHz
Формат субтитров: softsub (SRT)
MediaInfo
x264 [info]: frame I:1109 Avg QP:12.91 size:133975
x264 [info]: frame P:33743 Avg QP:14.51 size: 68182
x264 [info]: frame B:122661 Avg QP:16.25 size: 31864
Format : Matroska
Format version : Version 4 / Version 2
File size : 7.37 GiB
Duration : 1h 49mn
Overall bit rate : 9 632 Kbps
Movie name : Вне времени. (Tonik)
Encoded date : UTC 2015-06-29 15:38:58
Writing application : mkvmerge v7.1.0 ('Good Love') 64bit built on Jul 27 2014 13:06:55
Writing library : libebml v1.3.0 + libmatroska v1.4.1
_STATISTICS_WRITING_APP : mkvmerge v7.1.0 ('Good Love') 64bit built on Jul 27 2014 13:06:55
_STATISTICS_WRITING_DATE_UTC : 2015-06-29 15:38:58
_STATISTICS_TAGS : BPS DURATION NUMBER_OF_FRAMES NUMBER_OF_BYTES
DURATION : 01:41:51.773000000
NUMBER_OF_FRAMES : 1511
NUMBER_OF_BYTES : 34373
Video
ID : 1
Format : AVC
Format/Info : Advanced Video Codec
Format profile : High@L4.1
Format settings, CABAC : Yes
Format settings, ReFrames : 12 frames
Codec ID : V_MPEG4/ISO/AVC
Duration : 1h 49mn
Bit rate : 7 548 Kbps
Width : 1 280 pixels
Height : 534 pixels
Display aspect ratio : 2.40:1
Frame rate mode : Constant
Frame rate : 23.976 fps
Color space : YUV
Chroma subsampling : 4:2:0
Bit depth : 8 bits
Scan type : Progressive
Bits/(Pixel*Frame) : 0.461
Stream size : 5.78 GiB (78%)
Title : Tonik
Writing library : x264 core 146 r2538 121396c
Encoding settings : cabac=1 / ref=12 / deblock=1:-3:-3 / analyse=0x3:0x133 / me=umh / subme=11 / psy=1 / psy_rd=1.00:0.00 / mixed_ref=1 / me_range=32 / chroma_me=1 / trellis=2 / 8x8dct=1 / cqm=0 / deadzone=21,11 / fast_pskip=0 / chroma_qp_offset=-2 / threads=12 / lookahead_threads=3 / sliced_threads=0 / nr=0 / decimate=1 / interlaced=0 / bluray_compat=0 / constrained_intra=0 / bframes=11 / b_pyramid=2 / b_adapt=2 / b_bias=0 / direct=1 / weightb=1 / open_gop=0 / weightp=2 / keyint=250 / keyint_min=23 / scenecut=40 / intra_refresh=0 / rc=crf / mbtree=0 / crf=15.0 / qcomp=0.60 / qpmin=0 / qpmax=69 / qpstep=4 / ip_ratio=1.40 / pb_ratio=1.30 / aq=1:1.00
Language : English
Default : Yes
Forced : No
DURATION : 01:49:29.612000000
NUMBER_OF_FRAMES : 157513
NUMBER_OF_BYTES : 6357770352
_STATISTICS_WRITING_APP : mkvmerge v7.1.0 ('Good Love') 64bit built on Jul 27 2014 13:06:55
_STATISTICS_WRITING_DATE_UTC : 2015-06-29 15:38:58
_STATISTICS_TAGS : BPS DURATION NUMBER_OF_FRAMES NUMBER_OF_BYTES
Audio #1
ID : 2
Format : AC-3
Format/Info : Audio Coding 3
Mode extension : CM (complete main)
Format settings, Endianness : Big
Codec ID : A_AC3
Duration : 1h 49mn
Bit rate mode : Constant
Bit rate : 384 Kbps
Channel(s) : 6 channels
Channel positions : Front: L C R, Side: L R, LFE
Sampling rate : 48.0 KHz
Bit depth : 16 bits
Compression mode : Lossy
Stream size : 301 MiB (4%)
Language : Russian
Default : Yes
Forced : No
Audio #2
ID : 3
Format : DTS
Format/Info : Digital Theater Systems
Mode : 16
Format settings, Endianness : Big
Codec ID : A_DTS
Duration : 1h 49mn
Bit rate mode : Constant
Bit rate : 1 509 Kbps
Channel(s) : 6 channels
Channel positions : Front: L C R, Side: L R, LFE
Sampling rate : 48.0 KHz
Bit depth : 24 bits
Compression mode : Lossy
Stream size : 1.15 GiB (16%)
Language : English
Default : No
Forced : No
Text
ID : 4
Format : UTF-8
Codec ID : S_TEXT/UTF8
Codec ID/Info : UTF-8 Plain Text
Language : English
Default : No
Forced : No
Menu
00:00:00.000 : en:00:00:00.000
00:09:25.607 : en:00:09:25.607
00:19:31.170 : en:00:19:31.170
00:28:30.000 : en:00:28:30.000
00:37:18.403 : en:00:37:18.403
00:45:52.875 : en:00:45:52.875
00:54:52.372 : en:00:54:52.372
01:03:54.664 : en:01:03:54.664
01:12:55.788 : en:01:12:55.788
01:23:57.282 : en:01:23:57.282
01:31:22.977 : en:01:31:22.977
01:42:00.156 : en:01:42:00.156
Скриншоты
Скачать

Скачать торрент!

Как скачивать? · Что такое торрент? · Рейтинг и ограничения

Сайт не распространяет и не хранит электронные версии произведений, а лишь предоставляет доступ к создаваемому пользователями каталогу ссылок на торрент-файлы, которые содержат только списки хеш-сумм

[Профиль] [ЛС]
Показать сообщения:    
Ответить на тему

Текущее время: Сегодня 07:07

Часовой пояс: GMT + 4



Вы не можете начинать темы
Вы не можете отвечать на сообщения
Вы не можете редактировать свои сообщения
Вы не можете удалять свои сообщения
Вы не можете голосовать в опросах
Вы не можете прикреплять файлы к сообщениям
Вы не можете скачивать файлы