Континуум / Project Almanac (Дин Израэлайт / Dean Israelite) [2015 г., США, фантастика, триллер, BDRip] Dub + Original Eng + Sub (Rus, Ukr, Eng)

Ответить на тему
 
Автор Сообщение

user ®

Стаж: 7 лет 7 месяцев

Сообщений: 20008

Пост Пост: #1 от 30-Июн-2015 11:48

[Цитировать]

-Континуум / Project Almanac«Вчера будет весело» Страна: США
Студия: Insurge Pictures, MTV Films, Paramount Pictures, Platinum Dunes
Жанр: фантастика, триллер
Год выпуска: 2015
Продолжительность: 01:46:12-Перевод: Профессиональный (полное дублирование) BD EUR
Оригинальная аудиодорожка: английская
Cубтитры: русские, украинские, английские
Режиссер: Дин Израэлайт / Dean Israelite
В ролях: Джонни Уэстон, София Блэк-Д’Элиа, Сэм Лернер, Аллен Евангелиста, Вирджиния Гарднер, Эми Ландекер, Гари Викс, Максен Линтц, Гэри Граббс, Мишель ДеФрайтс
Описание: Однажды после просмотра старой пленки со дня рождения уже взрослый именинник заметил себя «настоящего» в отражении на видео. Съедаемые любопытством, друзья нашли чертежи таинственного устройства, похожего на машину времени. Они решили доделать ее и испробовать, чтобы вернуться в прошлое и исправить некоторые ошибки.
Но что будет, если группа отвязных тинейджеров случайно завладеет машиной времени? Однозначно, будет весело! Пока кто-то не нарушит правила, и веселая шутка не обернется кошмаром. Надо торопиться восстановить континуум, пока мир окончательно не разрушен!-
Сэмпл: скачать-Релиз от -
Автор рипа: Elheym
Качество: BDRip (источник: / Blu-ray EUR [PROJECT_ALMANAC_HDCLUB] / 1080p)
Контейнер: AVI
Видео: 720x304 (2.37:1), 23.976 fps, XviD build 65 ~2039 kbps avg, 0.39 bit/pixel
Аудио #1: Русский: AC3, 5.1, 48 kHz, ~448 Кбит/с | Профессиональный (полное дублирование) BD EUR |
Аудио #2: Английский: AC3, 5.1, 48 kHz, ~448 Кбит/с | Оригинал |
Субтитры: русские (полные: BD, iTunes; форсированные), украинские (полные), английские (полные х2, SDH, SDH цветные)
Размер: 2235.15 Mb (1/2 DVD)
MediaInfo
Полное имя : Kontinuum.2015.DUAL.BDRip.XviD.AC3.-HQCLUB.avi
Формат : AVI
Формат/Информация : Audio Video Interleave
Профиль формата : OpenDML
Размер файла : 2,18 Гбайт
Продолжительность : 1 ч. 46 м.
Общий поток : 2942 Кбит/сек
Название фильма : Континуум / Project Almanac (2015) BDRip
Режиссёр : Elheym
Программа кодирования : VirtualDubMod 1.5.10.2 (build 2540/release)
Авторское право : HQCLUB
Примечание : 29.06.2015
Видео
Идентификатор : 0
Формат : MPEG-4 Visual
Профиль формата : Advanced Simple@L5
Параметр BVOP формата : 1
Параметр QPel формата : Нет
Параметр GMC формата : Без точки перехода
Параметр матрицы формата : Выборочная
Идентификатор кодека : XVID
Идентификатор кодека/Подсказка : XviD
Продолжительность : 1 ч. 46 м.
Битрейт : 2028 Кбит/сек
Ширина : 720 пикселей
Высота : 304 пикселя
Соотношение сторон : 2,35:1
Частота кадров : 23,976 кадра/сек
Цветовое пространство : YUV
Субдискретизация насыщенности : 4:2:0
Битовая глубина : 8 бит
Тип развёртки : Прогрессивная
Метод сжатия : С потерями
Бит/(Пиксели*Кадры) : 0.387
Размер потока : 1,50 Гбайт (69%)
Библиотека кодирования : XviD 65
Аудио #1
Идентификатор : 1
Формат : AC-3
Формат/Информация : Audio Coding 3
Расширение режима : CM (complete main)
Параметр Endianness формата : Big
Идентификатор кодека : 2000
Продолжительность : 1 ч. 46 м.
Вид битрейта : Постоянный
Битрейт : 448 Кбит/сек
Каналы : 6 каналов
Расположение каналов : Front: L C R, Side: L R, LFE
Частота : 48,0 КГц
Метод сжатия : С потерями
Размер потока : 340 Мбайт (15%)
Выравнивание : Разделение по промежуткам
Продолжительность промежутка : 42 мс. (1,00 видеокадр)
Время предзагрузки промежутка : 500 мс.
Аудио #2
Идентификатор : 2
Формат : AC-3
Формат/Информация : Audio Coding 3
Расширение режима : CM (complete main)
Параметр Endianness формата : Big
Идентификатор кодека : 2000
Продолжительность : 1 ч. 46 м.
Вид битрейта : Постоянный
Битрейт : 448 Кбит/сек
Каналы : 6 каналов
Расположение каналов : Front: L C R, Side: L R, LFE
Частота : 48,0 КГц
Метод сжатия : С потерями
Размер потока : 340 Мбайт (15%)
Выравнивание : Разделение по промежуткам
Продолжительность промежутка : 42 мс. (1,00 видеокадр)
Время предзагрузки промежутка : 500 мс.
Скриншоты
Скачать

Скачать торрент!

Как скачивать? · Что такое торрент? · Рейтинг и ограничения

Сайт не распространяет и не хранит электронные версии произведений, а лишь предоставляет доступ к создаваемому пользователями каталогу ссылок на торрент-файлы, которые содержат только списки хеш-сумм

[Профиль] [ЛС]
Показать сообщения:    
Ответить на тему

Текущее время: Сегодня 20:32

Часовой пояс: GMT + 4



Вы не можете начинать темы
Вы не можете отвечать на сообщения
Вы не можете редактировать свои сообщения
Вы не можете удалять свои сообщения
Вы не можете голосовать в опросах
Вы не можете прикреплять файлы к сообщениям
Вы не можете скачивать файлы