Эффект Скопии / The Scopia Effect (Кристофер Батлер / Christopher Butler) [2014, Великобритания, ужасы, фантастика, триллер, WEB-DL 1080p] MVO + Original Eng

Ответить на тему
 
Автор Сообщение

user ®

Стаж: 7 лет 7 месяцев

Сообщений: 20008

Пост Пост: #1 от 29-Июн-2015 20:15

[Цитировать]

Эффект Скопии / The Scopia Effect
Страна: Великобритания
Жанр: ужасы, фантастика, триллер
Год выпуска: 2014
Продолжительность: 01:42:00
Перевод: Любительский (многоголосый закадровый)
Cубтитры: нет
Оригинальная аудиодорожка: английский
Режиссер: Кристофер Батлер
В ролях: Джоанна Игначевска, Луис Лабович, Акира Койеяма, Женевьёв Сибаян, Джессика Джей, Харука Абе, Морган Экерманн, Буки Анифово,з Йозеф Аоки, Энтони Гопол
Описание: Реинкарнация может пойти неправильно и выпустить темные и разрушительные силы. Прошлые жизни сливаются с настоящим, реальность искажается и превращается в настоящий кошмар.
Сэмпл: http://sendfile.su/1132446
Качество видео: WEB-DL
Формат видео: MKV
Видео: AVC 4376 Кбит/сек 1912x792
Аудио: Русский A_AC3 384 Кбит/сек 6 каналов 48,0 КГц
Аудио 2: Английский A_AC3 384 Кбит/сек 6 каналов 48,0 КГц

Озвучание
Камилла Юнусова, Андрей Питерский, Den904, DeadSno, перевод Olga Martin
MediaInfo
Общее
Уникальный идентификатор : 211413479285690627015946308676863560448 (0x9F0CC14A52E0668CA4D185CB5F0E8B00)
Полное имя : The.Scopia.Effect.2014.1080p.MVO.rus.mkv
Формат : Matroska
Версия формата : Version 4 / Version 2
Размер файла : 3,77 Гбайт
Продолжительность : 1 ч. 42 м.
Общий поток : 5248 Кбит/сек
Дата кодирования : UTC 2015-06-28 08:28:09
Программа кодирования : mkvmerge v6.0.0 ('Coming Up For Air') built on Jan 20 2013 09:52:00
Библиотека кодирования : libebml v1.3.0 + libmatroska v1.4.0
Attachements : cover_land.jpg / small_cover.jpg / small_cover_land.jpg / cover.jpg
Видео
Идентификатор : 1
Формат : AVC
Формат/Информация : Advanced Video Codec
Профиль формата : High@L4
Параметр CABAC формата : Да
Параметр ReFrames формата : 5 кадров
Идентификатор кодека : V_MPEG4/ISO/AVC
Продолжительность : 1 ч. 42 м.
Битрейт : 4376 Кбит/сек
Ширина : 1912 пикселей
Высота : 792 пикселя
Соотношение сторон : 2,40:1
Режим частоты кадров : Постоянный
Частота кадров : 25,000 кадров/сек
Цветовое пространство : YUV
Субдискретизация насыщенности : 4:2:0
Битовая глубина : 8 бит
Тип развёртки : Прогрессивная
Бит/(Пиксели*Кадры) : 0.116
Размер потока : 3,15 Гбайт (83%)
Заголовок : The.Scopia.Effect.2014.1080p.WEB-DL.DD5.1.H264-RARBG
Язык : English
Default : Да
Forced : Нет
Цветовой диапазон : Limited
Основные цвета : BT.709
Характеристики трансфера : BT.709
Коэффициенты матрицы : BT.709
Аудио #1
Идентификатор : 2
Формат : AC-3
Формат/Информация : Audio Coding 3
Расширение режима : CM (complete main)
Параметр Endianness формата : Big
Идентификатор кодека : A_AC3
Продолжительность : 1 ч. 42 м.
Вид битрейта : Постоянный
Битрейт : 384 Кбит/сек
Каналы : 6 каналов
Расположение каналов : Front: L C R, Side: L R, LFE
Частота : 48,0 КГц
Метод сжатия : С потерями
Размер потока : 283 Мбайт (7%)
Язык : Russian
Default : Да
Forced : Нет
Аудио #2
Идентификатор : 3
Формат : AC-3
Формат/Информация : Audio Coding 3
Расширение режима : CM (complete main)
Параметр Endianness формата : Big
Идентификатор кодека : A_AC3
Продолжительность : 1 ч. 42 м.
Вид битрейта : Постоянный
Битрейт : 384 Кбит/сек
Каналы : 6 каналов
Расположение каналов : Front: L C R, Side: L R, LFE
Частота : 48,0 КГц
Метод сжатия : С потерями
Размер потока : 283 Мбайт (7%)
Заголовок : The.Scopia.Effect.2014.1080p.WEB-DL.DD5.1.H264-RARBG
Язык : English
Default : Нет
Forced : Нет
Меню
00:00:00.000 : en:Chapter 1
00:10:04.000 : en:Chapter 2
00:18:35.000 : en:Chapter 3
00:27:35.000 : en:Chapter 4
00:36:01.000 : en:Chapter 5
00:45:33.000 : en:Chapter 6
00:54:28.000 : en:Chapter 7
01:04:08.000 : en:Chapter 8
01:13:45.000 : en:Chapter 9
01:22:14.000 : en:Chapter 10
01:30:11.000 : en:Chapter 11
01:38:57.000 : en:Chapter 12
Скриншот c названием фильма Скриншоты
Скачать

Скачать торрент!

Как скачивать? · Что такое торрент? · Рейтинг и ограничения

Сайт не распространяет и не хранит электронные версии произведений, а лишь предоставляет доступ к создаваемому пользователями каталогу ссылок на торрент-файлы, которые содержат только списки хеш-сумм

[Профиль] [ЛС]
Показать сообщения:    
Ответить на тему

Текущее время: Сегодня 12:52

Часовой пояс: GMT + 4



Вы не можете начинать темы
Вы не можете отвечать на сообщения
Вы не можете редактировать свои сообщения
Вы не можете удалять свои сообщения
Вы не можете голосовать в опросах
Вы не можете прикреплять файлы к сообщениям
Вы не можете скачивать файлы