Сквозь время / Времена года / Mausam (Панкадж Капур / Pankaj Kapur) [2011, Индия, Великобритания, Драма, мелодрама, HDRip] MVO (SDI Media)

Ответить на тему
 
Автор Сообщение

user ®

Стаж: 13 лет

Сообщений: 15070

Пост Пост: #1 от 29-Июн-2015 17:09

[Цитировать]

Сквозь время / Времена года / Mausam
Страна: Индия, Великобритания
Жанр: Драма, мелодрама
Год выпуска: 2011
Продолжительность: 02:45:49
Перевод: Профессиональный (многоголосый закадровый) SDI Media
Cубтитры: нет
Режиссер: Панкадж Капур / Pankaj Kapur
В ролях: Шахид Капур, Сонам Капур, Анупам Кхер, Суприя Патхак, Адити Шарма, Манодж Пахва, Ваибхав Талвар, Лорна Андерсон, Пол Култер
Описание: История жизни двух возлюбленных: пенджабского парня Гарри и кашмирской девушки Аят. Они встретились лишь однажды в Пенджабе, но вскоре им пришлось расстаться на долгое время — Аят увезли родители. Гарри становится военным лётчиком, и спустя уже многие годы всё равно продолжает ждать Аят. Когда по долгу службы он отправляется в Кашмир, главной его задачей становится найти некогда потерянную возлюбленную...
Доп. информация:
Сэмпл: http://multi-up.com/1056089
Качество видео: HDRip
Формат видео: AVI
Видео: XviD build 50, 720x304 (2.37:1), 24 fps, 1061 kbps avg
Аудио: AC3 Dolby Digital, 48 kHz, 2/0 (L,R) ch, 192 kbps
MediaInfo
General
Complete name : F:\Skvoz.Vremya.2011.HDRip.XviD.BwTorrents.avi
Format : AVI
Format/Info : Audio Video Interleave
File size : 1.46 GiB
Duration : 2h 45mn
Overall bit rate : 1 263 Kbps
Writing application : VirtualDubMod 1.5.10.2 (build 2540/release)
Writing library : VirtualDubMod build 2540/release
Video
ID : 0
Format : MPEG-4 Visual
Format profile : AdvancedSimple@L5
Format settings, BVOP : Yes
Format settings, QPel : No
Format settings, GMC : No warppoints
Format settings, Matrix : Default (MPEG)
Codec ID : XVID
Codec ID/Hint : XviD
Duration : 2h 45mn
Bit rate : 1 061 Kbps
Width : 720 pixels
Height : 304 pixels
Display aspect ratio : 2.35
Frame rate : 24.000 fps
Resolution : 24 bits
Colorimetry : 4:2:0
Scan type : Progressive
Bits/(Pixel*Frame) : 0.202
Stream size : 1.23 GiB (84%)
Writing library : XviD 1.2.1 (UTC 2008-12-04)
Audio
ID : 1
Format : AC-3
Format/Info : Audio Coding 3
Codec ID : 2000
Duration : 2h 45mn
Bit rate mode : Constant
Bit rate : 192 Kbps
Channel(s) : 2 channels
Channel positions : L R
Sampling rate : 48.0 KHz
Video delay : 15ms
Stream size : 228 MiB (15%)
Alignment : Split accross interleaves
Interleave, duration : 42 ms (1.00 video frame)
Interleave, preload duration : 500 ms
Скриншоты
Скачать

Скачать торрент! Сквозь время / Времена года / Mausam (Панкадж Капур / Pankaj Kapur) [2011, Индия, Великобритания, Драма, мелодрама, HDRip] MVO (SDI Media)

Как скачивать? · Что такое торрент? · Рейтинг и ограничения

Сайт не распространяет и не хранит электронные версии произведений, а лишь предоставляет доступ к создаваемому пользователями каталогу ссылок на торрент-файлы, которые содержат только списки хеш-сумм

[Профиль] [ЛС]
Показать сообщения:    
Ответить на тему

Текущее время: Сегодня 15:11

Часовой пояс: GMT + 4



Вы не можете начинать темы
Вы не можете отвечать на сообщения
Вы не можете редактировать свои сообщения
Вы не можете удалять свои сообщения
Вы не можете голосовать в опросах
Вы не можете прикреплять файлы к сообщениям
Вы не можете скачивать файлы