Рожденные летать / Бей и лети! / Неприкаянные / Lafangey Parindey (Прадип Саркар / Pradeep Sarkar) [2010, Индия, Драма, мелодрама, криминал, HDRip] MVO (SDI Media)

Ответить на тему
 
Автор Сообщение

user ®

Стаж: 12 лет

Сообщений: 15092

Пост Пост: #1 от 29-Июн-2015 17:09

[Цитировать]

Рожденные летать / Бей и лети! / Неприкаянные / Lafangey Parindey
Страна: Индия
Жанр: Драма, мелодрама, криминал
Год выпуска: 2010
Продолжительность: 02:06:19
Перевод: Профессиональный (многоголосый закадровый) SDI Media
Cубтитры: нет
Режиссер: Прадип Саркар / Pradeep Sarkar
В ролях: Нил Нитин Мукеш, Дипика Падукон, Пиюш Мишра, Чайтанья Висванатха, Кей Кей Менон, Виджай Адхав, Маниш Чаудхари, Джухи Чавла, Намит Дас, Джавед Джеффри, Панкадж Джха, Винай Шарма
Описание: Нанду (Нил Нитин Мукеш) – уличный парень, рожденный бороться. Он со всеми легко расправляется, а для борьбы – это хорошее качество, помогающее выжить в суровых условиях улицы. Совершенно необузданный, агрессивный, живущий с жаждой победы, этот дикарь выводит бокс на качественно новый уровень, бросая своих противников в нокаут с завязанными глазами. Нанду живет своими принципами, пользуется у друзей уважением и мечтает стать членом местной банды. Но вся его жизнь летит вверх тормашками, когда он встречает Пинки Палкар (Дипика Падукон).
Доп. информация:
Сэмпл: http://multi-up.com/1056091
Качество видео: HDRip
Формат видео: AVI
Видео: XviD build 50, 720x304 (2.37:1), 24 fps, 1352 kbps avg
Аудио: AC3 Dolby Digital, 48 kHz, 2/0 (L,R) ch, 192 kbps
MediaInfo
General
Complete name : F:\Rozhdennie.Letat.2010.НDRip.XviD.BwTorrents.avi
Format : AVI
Format/Info : Audio Video Interleave
File size : 1.37 GiB
Duration : 2h 6mn
Overall bit rate : 1 554 Kbps
Writing application : VirtualDubMod 1.5.10.3 | www.virtualdub-fr.org || (build 2550/release)
Writing library : VirtualDubMod build 2550/release
Video
ID : 0
Format : MPEG-4 Visual
Format profile : AdvancedSimple@L5
Format settings, BVOP : Yes
Format settings, QPel : No
Format settings, GMC : No warppoints
Format settings, Matrix : Default (MPEG)
Codec ID : XVID
Codec ID/Hint : XviD
Duration : 2h 6mn
Bit rate : 1 352 Kbps
Width : 720 pixels
Height : 304 pixels
Display aspect ratio : 2.35
Frame rate : 24.000 fps
Resolution : 24 bits
Colorimetry : 4:2:0
Scan type : Progressive
Bits/(Pixel*Frame) : 0.257
Stream size : 1.19 GiB (87%)
Writing library : XviD 1.2.1 (UTC 2008-12-04)
Audio
ID : 1
Format : AC-3
Format/Info : Audio Coding 3
Codec ID : 2000
Duration : 2h 6mn
Bit rate mode : Constant
Bit rate : 192 Kbps
Channel(s) : 2 channels
Channel positions : L R
Sampling rate : 48.0 KHz
Stream size : 173 MiB (12%)
Alignment : Split accross interleaves
Interleave, duration : 42 ms (1.00 video frame)
Interleave, preload duration : 500 ms
Скриншоты
Скачать

Скачать торрент! Рожденные летать / Бей и лети! / Неприкаянные / Lafangey Parindey (Прадип Саркар / Pradeep Sarkar) [2010, Индия, Драма, мелодрама, криминал, HDRip] MVO (SDI Media)

Как скачивать? · Что такое торрент? · Рейтинг и ограничения

Сайт не распространяет и не хранит электронные версии произведений, а лишь предоставляет доступ к создаваемому пользователями каталогу ссылок на торрент-файлы, которые содержат только списки хеш-сумм

[Профиль] [ЛС]
Показать сообщения:    
Ответить на тему

Текущее время: Сегодня 15:18

Часовой пояс: GMT + 4



Вы не можете начинать темы
Вы не можете отвечать на сообщения
Вы не можете редактировать свои сообщения
Вы не можете удалять свои сообщения
Вы не можете голосовать в опросах
Вы не можете прикреплять файлы к сообщениям
Вы не можете скачивать файлы