Волшебный свет / Das blaue Licht (Карстен Фибелер / Carsten Fiebeler) [2010, Германия, семейный, детский, фэнтези, HDTVRip 720p] MVO

Ответить на тему
 
Автор Сообщение

user ®

Стаж: 7 лет 7 месяцев

Сообщений: 20008

Пост Пост: #1 от 29-Июн-2015 17:09

[Цитировать]

Волшебный свет / Das blaue Licht
Страна: Германия
Студия: Hessischer Rundfunk (HR)
Жанр: Семейный, детский, фэнтези
Год выпуска: 2010
Продолжительность: 00:59:03
Перевод: Профессиональный (многоголосый закадровый) перевод и озвучка компанией "Игмар"
Cубтитры: нет
Оригинальная аудиодорожка: нет
Режиссер: Карстен Фибелер / Carsten Fiebeler
В ролях: Кристоф Летковски, Марлен Лозе, Кристиан Трамитц, Райнер Шёне, Вероника Феррес, Гидеон Финименто, Ханнес Вегенер, Кристоф Бах, Лилит Штангенберг
Описание: Экранизация сказки братьев Гримм. Отважный солдат много лет прослужил королю Карлу, был ранен и решил вернуться домой. Он попросил у короля заработной платы за свой труд, но государь отказался платить тем, кто покидает службу и больше не будет защищать его земли. Отчаявшись, солдат бредет через лес и останавливается в избушке у загадочной красавицы, которая окажется старухой-ведьмой. Она обманом заставляет своего гостя спуститься в глубокий колодец за оброненной голубой свечкой, да так и бросает его там. С горя солдат закуривает от свечки трубку - и в этот момент перед ним возникает волшебный дух...

Сэмпл: http://multi-up.com/1055979
Тип релиза: HDTVRip 720p
Контейнер: MKV
Видео: MPEG-4 AVC, 5130 Кбит/с, 25 fps, 16:9, 0.223 bits/pixel, 1280x720
Аудио: АС3, 2 ch, 48.0 KHz, 192 Кбит/с
MediaInfo
General
Unique ID : 218464977368137372470444985334545107873 (0xA45AD2FCE4373314B84B4CA196E9CBA1)
Complete name : F:\Наладки\Синяя свечка\Синяя свечка_720p.mkv
Format : Matroska
Format version : Version 4 / Version 2
File size : 2.20 GiB
Duration : 59mn 3s
Overall bit rate : 5 322 Kbps
Encoded date : UTC 2015-06-28 13:46:50
Writing application : mkvmerge v6.6.0 ('The Edge Of The In Between') built on Dec 1 2013 17:55:00
Writing library : libebml v1.3.0 + libmatroska v1.4.1
Video
ID : 1
Format : AVC
Format/Info : Advanced Video Codec
Format profile : High@L4.1
Format settings, CABAC : Yes
Format settings, ReFrames : 9 frames
Codec ID : V_MPEG4/ISO/AVC
Duration : 59mn 3s
Bit rate : 5 130 Kbps
Width : 1 280 pixels
Height : 720 pixels
Display aspect ratio : 16:9
Frame rate mode : Constant
Frame rate : 25.000 fps
Color space : YUV
Chroma subsampling : 4:2:0
Bit depth : 8 bits
Scan type : Progressive
Bits/(Pixel*Frame) : 0.223
Stream size : 2.07 GiB (94%)
Writing library : x264 core 146 r2538 121396c
Encoding settings : cabac=1 / ref=9 / deblock=1:-1:-1 / analyse=0x3:0x133 / me=umh / subme=9 / psy=1 / psy_rd=1.00:0.10 / mixed_ref=1 / me_range=32 / chroma_me=1 / trellis=2 / 8x8dct=1 / cqm=0 / deadzone=21,11 / fast_pskip=1 / chroma_qp_offset=-3 / threads=6 / lookahead_threads=1 / sliced_threads=0 / nr=0 / decimate=0 / interlaced=0 / bluray_compat=0 / constrained_intra=0 / bframes=9 / b_pyramid=2 / b_adapt=2 / b_bias=0 / direct=3 / weightb=1 / open_gop=0 / weightp=2 / keyint=250 / keyint_min=23 / scenecut=40 / intra_refresh=0 / rc=2pass / mbtree=0 / bitrate=5130 / ratetol=1.0 / qcomp=0.60 / qpmin=0 / qpmax=69 / qpstep=4 / cplxblur=20.0 / qblur=0.5 / ip_ratio=1.40 / pb_ratio=1.30 / aq=1:1.00
Language : English
Default : Yes
Forced : No
Audio
ID : 2
Format : AC-3
Format/Info : Audio Coding 3
Mode extension : CM (complete main)
Format settings, Endianness : Big
Codec ID : A_AC3
Duration : 59mn 3s
Bit rate mode : Constant
Bit rate : 192 Kbps
Channel(s) : 2 channels
Channel positions : Front: L R
Sampling rate : 48.0 KHz
Bit depth : 16 bits
Compression mode : Lossy
Stream size : 81.1 MiB (4%)
Language : Russian
Default : Yes
Forced : No
Скриншоты
Скачать

Скачать торрент!

Как скачивать? · Что такое торрент? · Рейтинг и ограничения

Сайт не распространяет и не хранит электронные версии произведений, а лишь предоставляет доступ к создаваемому пользователями каталогу ссылок на торрент-файлы, которые содержат только списки хеш-сумм

[Профиль] [ЛС]
Показать сообщения:    
Ответить на тему

Текущее время: Сегодня 10:04

Часовой пояс: GMT + 4



Вы не можете начинать темы
Вы не можете отвечать на сообщения
Вы не можете редактировать свои сообщения
Вы не можете удалять свои сообщения
Вы не можете голосовать в опросах
Вы не можете прикреплять файлы к сообщениям
Вы не можете скачивать файлы