Любовь похожа на тебя / Ask Sana Benzer (А. Танер Эльхан / A. Taner Elhan) [2015, Турция, драма, DVDRip] DVO

Ответить на тему
 
Автор Сообщение

user ®

Стаж: 7 лет 7 месяцев

Сообщений: 20008

Пост Пост: #1 от 28-Июн-2015 22:36

[Цитировать]

Любовь похожа на тебя / Aşk Sana Benzer
Страна: Турция
Жанр: драма
Год выпуска: 2015
Продолжительность: 01:49:45
Перевод: Любительский (двухголосый закадровый) Бислан Нагоев, Светлана Закамскова
Cубтитры: нет
Оригинальная аудиодорожка: нет
Режиссер: А. Танер Эльхан / A. Taner Elhan
В ролях: Бурак Озчивит, Фахрийе Эвджен, Селим Байрактар, Явуз Бинголь, Кая Аккая, Бирсен Дурулу, Бурчин Исик, Шамиль Кафкас
Описание: На берегу Эгейского моря расположен приморский город. Здесь живет наш главный герой Али. Это молодой красивый парень, который занимается рыболовством. Такая работа вполне удовлетворяет Али. Однажды в этот город приезжает девушка, которую звать Дениз. Дениз удается устроиться в кафе-мороженое. Поскольку городок небольшой, пути Али и Дениз не могли не пересечься. После знакомства, внутренняя жизнь Али начинает сильно меняться. Он находит то, что ему нравится не меньше его работы…
Сэмпл: http://multi-up.com/1055962
Качество видео: DVDRip
Формат видео: AVI
Видео: MPEG-4 Visual, XviD, 1703 Кбит/с, 25.000 fps, 720x384, Bits/(Pixel*Frame)-0.246
Аудио: MP3, 192 Kbps, 44.1 KHz, 2 ch - Русский
MediaInfo
Format : AVI
Format/Info : Audio Video Interleave
File size : 1.46 GiB
Duration : 1h 49mn
Overall bit rate : 1 904 Kbps
Writing application : VirtualDubMod 1.5.10.3 | www.virtualdub-fr.org || (build 2550/release)
Writing library : VirtualDub build 32842/release
Video
ID : 0
Format : MPEG-4 Visual
Format profile : Advanced Simple@L5
Format settings, BVOP : 2
Format settings, QPel : No
Format settings, GMC : No warppoints
Format settings, Matrix : Default (H.263)
Codec ID : XVID
Codec ID/Hint : XviD
Duration : 1h 49mn
Bit rate : 1 703 Kbps
Width : 720 pixels
Height : 384 pixels
Display aspect ratio : 1.85:1
Frame rate : 25.000 fps
Color space : YUV
Chroma subsampling : 4:2:0
Bit depth : 8 bits
Scan type : Progressive
Compression mode : Lossy
Bits/(Pixel*Frame) : 0.246
Stream size : 1.31 GiB (89%)
Writing library : XviD 1.2.1 (UTC 2008-12-04)
Audio
ID : 1
Format : MPEG Audio
Format version : Version 1
Format profile : Layer 3
Codec ID : 55
Codec ID/Hint : MP3
Duration : 1h 49mn
Bit rate mode : Constant
Bit rate : 192 Kbps
Channel(s) : 2 channels
Sampling rate : 44.1 KHz
Compression mode : Lossy
Stream size : 151 MiB (10%)
Alignment : Split accross interleaves
Interleave, duration : 40 ms (1.00 video frame)
Interleave, preload duration : 500 ms
Writing library : L3.99r
Encoding settings : -m s -V 4 -q 2 -lowpass 18.6 -b 192
Скриншот c названием фильма Скриншоты
Скачать

Скачать торрент!

Как скачивать? · Что такое торрент? · Рейтинг и ограничения

Сайт не распространяет и не хранит электронные версии произведений, а лишь предоставляет доступ к создаваемому пользователями каталогу ссылок на торрент-файлы, которые содержат только списки хеш-сумм

[Профиль] [ЛС]
Показать сообщения:    
Ответить на тему

Текущее время: Сегодня 18:22

Часовой пояс: GMT + 4



Вы не можете начинать темы
Вы не можете отвечать на сообщения
Вы не можете редактировать свои сообщения
Вы не можете удалять свои сообщения
Вы не можете голосовать в опросах
Вы не можете прикреплять файлы к сообщениям
Вы не можете скачивать файлы