Луч света младший / Sunlight Jr. (Лори Коллье / Laurie Collier) [2013, США, драма, WEB-DL 720p] VO (Andi) + Sub Eng + Original Eng

Ответить на тему
 
Автор Сообщение

user ®

Стаж: 7 лет 7 месяцев

Сообщений: 20008

Пост Пост: #1 от 28-Июн-2015 19:30

[Цитировать]

Луч света младший / Sunlight Jr.
Страна: США
Студия: Original Media, Freight Yard Films, Alchemedia Films
Жанр: драма
Год выпуска: 2013
Продолжительность: 01:34:52
Перевод: Любительский (одноголосый, закадровый) [Andi]
Cубтитры: английские
Оригинальная аудиодорожка: английский
Режиссер: Лори Коллье / Laurie Collier
В ролях: Наоми Уоттс, Мэтт Диллон, Норман Ридус, Тесс Харпер, Вивиан Флеминг-Альварес, Энтони Короне, Ивонн Гугеле, Уильям Хэйз, Виктория Водар, Кит Хадсон
Описание: Мелисса – молодая женщина, работающая в магазине «Sunlight Jr» и каждый день справляющаяся с множеством самых разных и весьма неприятных проблем. Казалось бы, не все так плохо: работа, хоть и не сказочная, имеется, да и любовь в жизни Мелиссы присутствует, да только ее молодой человек страдает от паралича, и забота об их отношениях и благополучии целиком и полностью лежит на ее плечах. Время от времени Мелиссу навещает ее бывший, с которым она вообще предпочла бы не встречаться, и это тоже портит ей настроение. Такая жизнь, более-менее устоявшаяся, делает резкий поворот, когда Мелисса узнает о своей беременности и, недолго думая, решает все-таки родить долгожданного ребенка. Вдобавок ко всему, на работе начинаются трудности, и Мелисса оказывается под угрозой увольнения тогда, когда это нужно ей меньше всего. В такой ситуации очень сложно сохранить присутствие духа и продолжать радоваться жизни, и Мелиссе понемногу начинает казаться, что больше она не выдержит ни дня.
Сэмпл: http://multi-up.com/1055845
Тип релиза: WEB-DL 720p
Контейнер: MKV
Видео: MPEG-4 AVC, 1280x532, 3 850 Кбит/с, 23.976 fps
Аудио 1: Russian, AC3, 48 KHz, 2 ch, 192 Кбит/с
Аудио 2: English, AC3, 48 KHz, 6 ch, 384 Кбит/с
Субтитры: английские, softsub (SRT)
MediaInfo
General
Unique ID : 206566875708463172158336134615324187204 (0x9B675548F5FBB3059485755649545A44)
Complete name : Sunlight.Jr..2013.720p.WEB-DL.RUS.ENG.H.264-alfaHD.mkv
Format : Matroska
Format version : Version 4 / Version 2
File size : 2.99 GiB
Duration : 1h 34mn
Overall bit rate : 4 516 Kbps
Encoded date : UTC 2015-06-27 15:53:01
Writing application : mkvmerge v8.1.0 ('Psychedelic Postcard') 64bit
Writing library : libebml v1.3.1 + libmatroska v1.4.2
DURATION : 01:34:52.000000000
NUMBER_OF_FRAMES : 177875
NUMBER_OF_BYTES : 136608000
_STATISTICS_WRITING_APP : mkvmerge v8.1.0 ('Psychedelic Postcard') 64bit
_STATISTICS_WRITING_DATE_UTC : 2015-06-27 15:53:01
_STATISTICS_TAGS : BPS DURATION NUMBER_OF_FRAMES NUMBER_OF_BYTES
Video
ID : 1
Format : AVC
Format/Info : Advanced Video Codec
Format profile : Main@L3.1
Format settings, CABAC : No
Format settings, ReFrames : 2 frames
Codec ID : V_MPEG4/ISO/AVC
Duration : 1h 34mn
Bit rate : 3 850 Kbps
Width : 1 280 pixels
Height : 532 pixels
Display aspect ratio : 2.40:1
Frame rate mode : Constant
Frame rate : 23.976 fps
Color space : YUV
Chroma subsampling : 4:2:0
Bit depth : 8 bits
Scan type : Progressive
Bits/(Pixel*Frame) : 0.236
Stream size : 2.55 GiB (85%)
Language : English
Default : Yes
Forced : No
Color range : Limited
Color primaries : BT.709
Transfer characteristics : BT.709
Matrix coefficients : BT.709
Audio #1
ID : 2
Format : AC-3
Format/Info : Audio Coding 3
Mode extension : CM (complete main)
Format settings, Endianness : Big
Codec ID : A_AC3
Duration : 1h 34mn
Bit rate mode : Constant
Bit rate : 192 Kbps
Channel(s) : 2 channels
Channel positions : Front: L R
Sampling rate : 48.0 KHz
Bit depth : 16 bits
Compression mode : Lossy
Stream size : 130 MiB (4%)
Language : Russian
Default : Yes
Forced : No
Audio #2
ID : 3
Format : AC-3
Format/Info : Audio Coding 3
Mode extension : CM (complete main)
Format settings, Endianness : Big
Codec ID : A_AC3
Duration : 1h 34mn
Bit rate mode : Constant
Bit rate : 384 Kbps
Channel(s) : 6 channels
Channel positions : Front: L C R, Side: L R, LFE
Sampling rate : 48.0 KHz
Bit depth : 16 bits
Compression mode : Lossy
Stream size : 261 MiB (9%)
Language : English
Default : No
Forced : No
Text
ID : 4
Format : UTF-8
Codec ID : S_TEXT/UTF8
Codec ID/Info : UTF-8 Plain Text
Language : English
Default : Yes
Forced : No
Скриншот c названием фильма Скриншоты
Скачать

Скачать торрент!

Как скачивать? · Что такое торрент? · Рейтинг и ограничения

Сайт не распространяет и не хранит электронные версии произведений, а лишь предоставляет доступ к создаваемому пользователями каталогу ссылок на торрент-файлы, которые содержат только списки хеш-сумм

[Профиль] [ЛС]
Показать сообщения:    
Ответить на тему

Текущее время: Сегодня 03:13

Часовой пояс: GMT + 4



Вы не можете начинать темы
Вы не можете отвечать на сообщения
Вы не можете редактировать свои сообщения
Вы не можете удалять свои сообщения
Вы не можете голосовать в опросах
Вы не можете прикреплять файлы к сообщениям
Вы не можете скачивать файлы