Тайны прошлого / House of D (Дэвид Духовны / David Duchovny) [2004, США, драма, комедия, WEB-DL 720p] DVO (Пирамида) + Sub Rus, Eng + Original Eng

Ответить на тему
 
Автор Сообщение

user ®

Стаж: 7 лет 7 месяцев

Сообщений: 20008

Пост Пост: #1 от 28-Июн-2015 19:30

[Цитировать]

Тайны прошлого / House of D
Страна: США
Жанр: драма, комедия
Год выпуска: 2004
Продолжительность: 01:37:08
Перевод: Профессиональный (двухголосый закадровый) Пирамида
Cубтитры: русские, английские
Оригинальная аудиодорожка: английский
Режиссер: Дэвид Духовны / David Duchovny
В ролях: Антон Ельчин, Робин Уильямс, Теа Леони, Эрика Баду, Дэвид Духовны, Фрэнк Ланджелла, Зельда Уильямс, Мэгали Амадей, Ольга Сосновска, Орландо Джонс...
Описание: Американец Том Уоршоу уже тридцать лет обитает в Париже, и никто не знает, что когда-то он был совсем другим человеком и жил совсем другой жизнью. Сегодня особенный день — сыну Тома исполняется 13 лет, и отец приготовил ему особенный подарок.
Том поведает ему удивительную историю, которая случилась с ним, когда он 13-летним пацаном жил в Нью-Йорке и мечтал о будущем. Он раскроет ему секрет своей жизни, чтобы еще раз пережить свое прошлое, которое стоило ему слишком дорого…
Доп. информация: 5.1 с DVD дутые, во всех каналах звучит речь.
Сэмпл: http://multi-up.com/1055952
Тип релиза: WEB-DL 720p
Контейнер: MKV
Видео: 1280x718 (16:9), 23.976 fps, AVC, ~3851 Kbps, 0.175 bits/pixel
Аудио 1: Russian, 48.0 KHz, AC3, 2 ch, 192 Kbps - Пирамида
Аудио 2: English, 48.0 KHz, AC3, 2 ch, 192 Kbps

MediaInfo
General
Unique ID : 230578155549080069031391881633449597560 (0xAD77BCC82B9359498111C303D1FF5A78)
Complete name : C:\House of D. WEB-DL 720p.mkv
Format : Matroska
Format version : Version 4 / Version 2
File size : 2.93 GiB
Duration : 1h 37mn
Overall bit rate : 4 321 Kbps
Movie name :
Encoded date : UTC 2015-06-28 05:56:31
Writing application : mkvmerge v8.0.0 ('Til The Day That I Die') 64bit
Writing library : libebml v1.3.1 + libmatroska v1.4.2
DURATION : 01:32:30.960000000
NUMBER_OF_FRAMES : 918
NUMBER_OF_BYTES : 55138
_STATISTICS_WRITING_APP : mkvmerge v8.0.0 ('Til The Day That I Die') 64bit
_STATISTICS_WRITING_DATE_UT : 2015-06-28 05:56:31
_STATISTICS_TAGS : BPS DURATION NUMBER_OF_FRAMES NUMBER_OF_BYTES
Video
ID : 1
Format : AVC
Format/Info : Advanced Video Codec
Format profile : High@L3.1
Format settings, CABAC : No
Format settings, ReFrames : 2 frames
Codec ID : V_MPEG4/ISO/AVC
Duration : 1h 37mn
Bit rate : 3 851 Kbps
Width : 1 280 pixels
Height : 718 pixels
Display aspect ratio : 16:9
Frame rate mode : Constant
Frame rate : 23.976 fps
Color space : YUV
Chroma subsampling : 4:2:0
Bit depth : 8 bits
Scan type : Progressive
Bits/(Pixel*Frame) : 0.175
Stream size : 2.61 GiB (89%)
Language : English
Default : Yes
Forced : No
Color range : Limited
Color primaries : BT.709
Transfer characteristics : BT.709
Matrix coefficients : BT.709
Audio #1
ID : 2
Format : AC-3
Format/Info : Audio Coding 3
Mode extension : CM (complete main)
Format settings, Endianness : Big
Codec ID : A_AC3
Duration : 1h 37mn
Bit rate mode : Constant
Bit rate : 192 Kbps
Channel(s) : 2 channels
Channel positions : Front: L R
Sampling rate : 48.0 KHz
Compression mode : Lossy
Stream size : 133 MiB (4%)
Title : Пирамида
Language : Russian
Default : Yes
Forced : No
Audio #2
ID : 3
Format : AC-3
Format/Info : Audio Coding 3
Mode extension : CM (complete main)
Format settings, Endianness : Big
Codec ID : A_AC3
Duration : 1h 37mn
Bit rate mode : Constant
Bit rate : 192 Kbps
Channel(s) : 2 channels
Channel positions : Front: L R
Sampling rate : 48.0 KHz
Compression mode : Lossy
Stream size : 133 MiB (4%)
Language : English
Default : No
Forced : No
Text #1
ID : 4
Format : UTF-8
Codec ID : S_TEXT/UTF8
Codec ID/Info : UTF-8 Plain Text
Language : Russian
Default : No
Forced : No
Text #2
ID : 5
Format : UTF-8
Codec ID : S_TEXT/UTF8
Codec ID/Info : UTF-8 Plain Text
Language : English
Default : No
Forced : No
Menu
00:00:00.000 : en:Chapter 1
00:08:16.000 : en:Chapter 2
00:15:57.000 : en:Chapter 3
00:24:31.000 : en:Chapter 4
00:34:37.000 : en:Chapter 5
00:44:41.000 : en:Chapter 6
00:52:22.000 : en:Chapter 7
01:01:27.000 : en:Chapter 8
01:10:18.000 : en:Chapter 9
01:18:09.000 : en:Chapter 10
01:25:58.000 : en:Chapter 11
01:33:06.000 : en:Chapter 12
Скриншоты
Скачать

Скачать торрент!

Как скачивать? · Что такое торрент? · Рейтинг и ограничения

Сайт не распространяет и не хранит электронные версии произведений, а лишь предоставляет доступ к создаваемому пользователями каталогу ссылок на торрент-файлы, которые содержат только списки хеш-сумм

[Профиль] [ЛС]
Показать сообщения:    
Ответить на тему

Текущее время: Сегодня 12:50

Часовой пояс: GMT + 4



Вы не можете начинать темы
Вы не можете отвечать на сообщения
Вы не можете редактировать свои сообщения
Вы не можете удалять свои сообщения
Вы не можете голосовать в опросах
Вы не можете прикреплять файлы к сообщениям
Вы не можете скачивать файлы