Женщина в черном 2: Ангел смерти / The Woman in Black 2: Angel of Death (Том Харпер / Tom Harper) [2014, Великобритания, Канада, ужасы, триллер, драма, BDRip 720p] Dub + Sub Eng + Original Eng

Ответить на тему
 
Автор Сообщение

user ®

Стаж: 7 лет 7 месяцев

Сообщений: 20008

Пост Пост: #1 от 28-Июн-2015 19:30

[Цитировать]

Женщина в черном 2: Ангел смерти / The Woman in Black 2: Angel of Death Страна: Великобритания, Канада
Студия: Alliance Films, Da Vinci Media Ventures, Exclusive Media Group
Жанр: ужасы, триллер, драма
Год выпуска: 2014
Продолжительность: 01:38:38
Перевод: Профессиональный (дублированный) Лицензия R5
Cубтитры: английские (full, SDH)
Оригинальная аудиодорожка: английский
Режиссер: Том Харпер / Tom Harper
В ролях: Фиби Фокс, Меррин Пирс, Мэри Роско, Хелен МакКрори, Амелия Крауч, Амелия Пиджон, Каспер Олпресс, Пип Пирс, Лейла де Меса, Джуд Райт
Описание: Во время Второй мировой войны группу школьников и их юную учительницу Еву эвакуируют из подвергшегося бомбардировкам Лондона в заброшенное поместье, расположенное в деревенской глуши. Вскоре в деревне начинают происходить странные события. Ева с помощью начальника местного гарнизона Гарри обнаруживает, что приезд детей пробудил темные силы, внушающие больший ужас, чем вражеские бомбардировки. Теперь Ева должна противостоять силам зла, спасти детей и пережить встречу с Женщиной в черном.

Тип релиза: BDRip 720p [VietHD]
Контейнер: MKV
Видео: AVC, 1280x536, 6200kbps, 23.976 fps
Аудио 1: Russian: 48 kHz, AC3, 3/2 (L,C,R,l,r) + LFE ch, 448.00 kbps |R5|
Аудио 2: English: 48 kHz, AC3, 3/2 (L,C,R,l,r) + LFE ch, 640.00 kbps |Original|
Чаптеры: есть

x264 log
x264 [info]: frame I:876 Avg QP:10.81 size:119883
x264 [info]: frame P:27776 Avg QP:12.51 size: 57466
x264 [info]: frame B:113107 Avg QP:14.71 size: 25456
x264 [info]: consecutive B-frames: 2.8% 2.5% 3.1% 6.5% 12.8% 44.9% 12.3% 7.5% 5.7% 2.0%
encoded 141759 frames, 9.76 fps, 6197.61 kb/s, duration 4:02:08.58
MediaInfo
General
Unique ID : 184678748362474309298321758770814858635 (0x8AEFD549BB9DF4AF9E4FE9677151358B)
Complete name : D:\\The.Woman.in.Black.2.Angel.of.Death.2014.720p.BluRay.DD5.1.x264-Talian-.mkv
Format : Matroska
Format version : Version 2
File size : 5.02 GiB
Duration : 1h 38mn
Overall bit rate : 7 289 Kbps
Movie name : The Woman in Black 2: Angel of Death-Talian-
Encoded date : UTC 2015-06-28 12:44:55
Writing application : mkvmerge v5.7.0 ('The Whirlwind') built on Jul 8 2012 20:08:51
Writing library : libebml v1.2.3 + libmatroska v1.3.0
Attachment : Yes
Video
ID : 1
Format : AVC
Format/Info : Advanced Video Codec
Format profile : High@L4.1
Format settings, CABAC : Yes
Format settings, ReFrames : 12 frames
Codec ID : V_MPEG4/ISO/AVC
Duration : 1h 38mn
Bit rate : 6 200 Kbps
Width : 1 280 pixels
Height : 536 pixels
Display aspect ratio : 2.40:1
Frame rate : 23.976 fps
Color space : YUV
Chroma subsampling : 4:2:0
Bit depth : 8 bits
Scan type : Progressive
Bits/(Pixel*Frame) : 0.377
Stream size : 4.17 GiB (83%)
Title : VietHD
Writing library : x264 core 146 r2538kMod 121396c
Encoding settings : cabac=1 / ref=12 / deblock=1:-3:-3 / analyse=0x3:0x113 / me=umh / subme=9 / psy=1 / fade_compensate=0.00 / psy_rd=1.05:0.00 / mixed_ref=1 / me_range=16 / chroma_me=1 / trellis=2 / 8x8dct=1 / cqm=0 / deadzone=21,11 / fast_pskip=0 / chroma_qp_offset=-2 / threads=6 / lookahead_threads=1 / sliced_threads=0 / nr=0 / decimate=0 / interlaced=0 / bluray_compat=0 / constrained_intra=0 / fgo=0 / bframes=9 / b_pyramid=2 / b_adapt=2 / b_bias=0 / direct=3 / weightb=1 / open_gop=0 / weightp=2 / keyint=250 / keyint_min=23 / scenecut=40 / intra_refresh=0 / rc=2pass / mbtree=0 / bitrate=6200 / ratetol=1.0 / qcomp=0.60 / qpmin=0 / qpmax=69 / qpstep=4 / cplxblur=20.0 / qblur=0.5 / ip_ratio=1.40 / pb_ratio=1.30 / aq=1:0.60
Language : English
Default : Yes
Forced : No
Audio #1
ID : 2
Format : AC-3
Format/Info : Audio Coding 3
Mode extension : CM (complete main)
Format settings, Endianness : Big
Codec ID : A_AC3
Duration : 1h 38mn
Bit rate mode : Constant
Bit rate : 448 Kbps
Channel(s) : 6 channels
Channel positions : Front: L C R, Side: L R, LFE
Sampling rate : 48.0 KHz
Bit depth : 16 bits
Compression mode : Lossy
Stream size : 316 MiB (6%)
Title : DUB- R5
Language : Russian
Default : Yes
Forced : No
Audio #2
ID : 3
Format : AC-3
Format/Info : Audio Coding 3
Mode extension : CM (complete main)
Format settings, Endianness : Big
Codec ID : A_AC3
Duration : 1h 38mn
Bit rate mode : Constant
Bit rate : 640 Kbps
Channel(s) : 6 channels
Channel positions : Front: L C R, Side: L R, LFE
Sampling rate : 48.0 KHz
Bit depth : 16 bits
Compression mode : Lossy
Stream size : 451 MiB (9%)
Title : Original
Language : English
Default : No
Forced : No
Text #1
ID : 4
Format : UTF-8
Codec ID : S_TEXT/UTF8
Codec ID/Info : UTF-8 Plain Text
Title : Sub-full
Language : English
Default : No
Forced : No
Text #2
ID : 5
Format : UTF-8
Codec ID : S_TEXT/UTF8
Codec ID/Info : UTF-8 Plain Text
Title : Sub-SDH
Language : English
Default : No
Forced : No
Menu
00:00:00.000 : en:00:00:00.000
00:07:33.745 : en:00:07:33.745
00:11:13.798 : en:00:11:13.798
00:18:38.409 : en:00:18:38.409
00:20:51.167 : en:00:20:51.167
00:24:53.659 : en:00:24:53.659
00:30:43.008 : en:00:30:43.008
00:34:04.000 : en:00:34:04.000
00:35:44.893 : en:00:35:44.893
00:39:13.184 : en:00:39:13.184
00:41:52.677 : en:00:41:52.677
00:43:34.737 : en:00:43:34.737
00:47:58.626 : en:00:47:58.626
00:48:57.184 : en:00:48:57.184
00:53:13.315 : en:00:53:13.315
00:55:54.643 : en:00:55:54.643
01:01:20.510 : en:01:01:20.510
01:07:58.992 : en:01:07:58.992
01:11:51.641 : en:01:11:51.641
01:16:41.347 : en:01:16:41.347
01:19:57.167 : en:01:19:57.167
01:23:13.030 : en:01:23:13.030
01:30:24.919 : en:01:30:24.919
01:33:01.201 : en:01:33:01.201
Скриншоты
Source vs Encode


Скачать

Скачать торрент!

Как скачивать? · Что такое торрент? · Рейтинг и ограничения

Сайт не распространяет и не хранит электронные версии произведений, а лишь предоставляет доступ к создаваемому пользователями каталогу ссылок на торрент-файлы, которые содержат только списки хеш-сумм

[Профиль] [ЛС]
Показать сообщения:    
Ответить на тему

Текущее время: Сегодня 05:57

Часовой пояс: GMT + 4



Вы не можете начинать темы
Вы не можете отвечать на сообщения
Вы не можете редактировать свои сообщения
Вы не можете удалять свои сообщения
Вы не можете голосовать в опросах
Вы не можете прикреплять файлы к сообщениям
Вы не можете скачивать файлы