Медленный Запад / Slow West (Джон Маклин / John Maclean) [2015, Великобритания, Новая Зеландия, боевик, триллер, вестерн, BDRip-AVC] VO (М. Чадов) + DVO + Sub Eng + Original Eng

Ответить на тему
 
Автор Сообщение

user ®

Стаж: 7 лет 7 месяцев

Сообщений: 20008

Пост Пост: #1 от 28-Июн-2015 10:12

[Цитировать]

Медленный Запад / Slow West
Страна: Великобритания, Новая Зеландия
Жанр: боевик, триллер, вестерн
Год выпуска: 2015
Продолжительность: 01:24:00
Перевод 1: Одноголосый закадровый М. Чадов
Перевод 2: Любительский (двухголосый закадровый)
Cубтитры: английские
Оригинальная аудиодорожка: английский
Режиссер: Джон Маклин / John Maclean
В ролях: Майкл Фассбендер, Бен Мендельсон, Коди Смит-МакФи, Рори МакКанн, Брук Уильямс, Карен Писториус, Алекс МакКуин, Энди МакФи, Джеффри Томас, Калани Кейпо
Описание: Авантюрист средних лет ведет молодого выходца из Шотландии на Запад, куда тот отправился на поиски возлюбленной, по следу которой идут еще и охотники за головами. Истоия c непредсказуемым завершением, описать которое в одном предложении было бы кощунством.
II Сэмпл II IMDB II
Качество видео: BDRip-AVC (Slow.West.2015.BluRay.REMUX.1080p.AVC.DTS-HD.MA.5.1-HDArea)
Формат видео: MKV
Видео: AVC / 1056x640 / 1.65:1 / 23.976fps / Bit rate 2685Kbps / b/p 0.166
Аудио 1: AC3 / 48.0KHz / 6ch. / 384kbps / rus / vo / М. Чадов
Аудио 2: AC3 / 48.0KHz / 2ch. / 192kbps / rus / dvo
Аудио 3: AC3 / 48.0KHz / 6ch. / 448kbps / eng
Формат субтитров: softsub (SRT)
MediaInfo
Общее
Уникальный идентификатор : 205149811474328308766686872481640075819 (0x9A566A9FC4D90935A01A15774FDDD22B)
Полное имя : D:\torrent\Slow.West.2015.BDRip-AVC_by_vedigo.mkv
Формат : Matroska
Версия формата : Version 4 / Version 2
Размер файла : 2,18 Гбайт
Продолжительность : 1 ч. 24 м.
Общий поток : 3710 Кбит/сек
Дата кодирования : UTC 2015-06-28 03:29:28
Программа кодирования : mkvmerge v8.1.0 ('Psychedelic Postcard') 64bit
Библиотека кодирования : libebml v1.3.1 + libmatroska v1.4.2
DURATION : 01:17:59.408000000
NUMBER_OF_FRAMES : 500
NUMBER_OF_BYTES : 13944
_STATISTICS_WRITING_APP : mkvmerge v8.1.0 ('Psychedelic Postcard') 64bit
_STATISTICS_WRITING_DATE_UTC : 2015-06-28 03:29:28
_STATISTICS_TAGS : BPS DURATION NUMBER_OF_FRAMES NUMBER_OF_BYTES
Видео
Идентификатор : 1
Формат : AVC
Формат/Информация : Advanced Video Codec
Профиль формата : High@L4.1
Параметр CABAC формата : Да
Параметр ReFrames формата : 12 кадров
Идентификатор кодека : V_MPEG4/ISO/AVC
Продолжительность : 1 ч. 24 м.
Битрейт : 2685 Кбит/сек
Ширина : 1056 пикселей
Высота : 640 пикселей
Соотношение сторон : 5:3
Режим частоты кадров : Постоянный
Частота кадров : 23,976 кадра/сек
Цветовое пространство : YUV
Субдискретизация насыщенности : 4:2:0
Битовая глубина : 8 бит
Тип развёртки : Прогрессивная
Бит/(Пиксели*Кадры) : 0.166
Размер потока : 1,53 Гбайт (70%)
Заголовок : Slow.West.2015.BDRip-AVC_by_vedigo
Библиотека кодирования : x264 core 146 r2538 121396c
Настройки программы : cabac=1 / ref=12 / deblock=1:-3:-3 / analyse=0x3:0x133 / me=umh / subme=11 / psy=1 / psy_rd=1.00:0.10 / mixed_ref=1 / me_range=32 / chroma_me=1 / trellis=2 / 8x8dct=1 / cqm=0 / deadzone=21,11 / fast_pskip=0 / chroma_qp_offset=-3 / threads=12 / lookahead_threads=2 / sliced_threads=0 / nr=0 / decimate=1 / interlaced=0 / bluray_compat=0 / constrained_intra=0 / bframes=8 / b_pyramid=2 / b_adapt=2 / b_bias=0 / direct=3 / weightb=1 / open_gop=0 / weightp=2 / keyint=250 / keyint_min=23 / scenecut=40 / intra_refresh=0 / rc_lookahead=40 / rc=2pass / mbtree=0 / bitrate=2685 / ratetol=1.0 / qcomp=0.60 / qpmin=0 / qpmax=69 / qpstep=4 / cplxblur=20.0 / qblur=0.5 / vbv_maxrate=50000 / vbv_bufsize=62500 / nal_hrd=none / filler=0 / ip_ratio=1.40 / pb_ratio=1.30 / aq=1:1.00
Default : Да
Forced : Нет
DURATION : 01:24:00.828000000
NUMBER_OF_FRAMES : 120859
NUMBER_OF_BYTES : 1691331737
_STATISTICS_WRITING_APP : mkvmerge v8.1.0 ('Psychedelic Postcard') 64bit
_STATISTICS_WRITING_DATE_UTC : 2015-06-28 03:29:28
_STATISTICS_TAGS : BPS DURATION NUMBER_OF_FRAMES NUMBER_OF_BYTES
Аудио #1
Идентификатор : 2
Формат : AC-3
Формат/Информация : Audio Coding 3
Расширение режима : CM (complete main)
Параметр Endianness формата : Big
Идентификатор кодека : A_AC3
Продолжительность : 1 ч. 24 м.
Вид битрейта : Постоянный
Битрейт : 384 Кбит/сек
Каналы : 6 каналов
Расположение каналов : Front: L C R, Side: L R, LFE
Частота : 48,0 КГц
Метод сжатия : С потерями
Размер потока : 231 Мбайт (10%)
Заголовок : rus / vo
Язык : Russian
Default : Да
Forced : Нет
Аудио #2
Идентификатор : 3
Формат : AC-3
Формат/Информация : Audio Coding 3
Расширение режима : CM (complete main)
Параметр Endianness формата : Big
Идентификатор кодека : A_AC3
Продолжительность : 1 ч. 24 м.
Вид битрейта : Постоянный
Битрейт : 192 Кбит/сек
Каналы : 2 канала
Расположение каналов : Front: L R
Частота : 48,0 КГц
Метод сжатия : С потерями
Размер потока : 115 Мбайт (5%)
Заголовок : rus /dvo
Язык : Russian
Default : Нет
Forced : Нет
Аудио #3
Идентификатор : 4
Формат : AC-3
Формат/Информация : Audio Coding 3
Расширение режима : CM (complete main)
Параметр Endianness формата : Big
Идентификатор кодека : A_AC3
Продолжительность : 1 ч. 24 м.
Вид битрейта : Постоянный
Битрейт : 448 Кбит/сек
Каналы : 6 каналов
Расположение каналов : Front: L C R, Side: L R, LFE
Частота : 48,0 КГц
Метод сжатия : С потерями
Размер потока : 269 Мбайт (12%)
Заголовок : original eng
Язык : English
Default : Нет
Forced : Нет
Текст
Идентификатор : 5
Формат : UTF-8
Идентификатор кодека : S_TEXT/UTF8
Идентификатор кодека/Информация : UTF-8 Plain Text
Заголовок : subtitle eng
Язык : English
Default : Нет
Forced : Нет
Скриншот c названием фильма Скриншоты
Скачать

Скачать торрент!

Как скачивать? · Что такое торрент? · Рейтинг и ограничения

Сайт не распространяет и не хранит электронные версии произведений, а лишь предоставляет доступ к создаваемому пользователями каталогу ссылок на торрент-файлы, которые содержат только списки хеш-сумм

[Профиль] [ЛС]
Показать сообщения:    
Ответить на тему

Текущее время: Сегодня 15:55

Часовой пояс: GMT + 4



Вы не можете начинать темы
Вы не можете отвечать на сообщения
Вы не можете редактировать свои сообщения
Вы не можете удалять свои сообщения
Вы не можете голосовать в опросах
Вы не можете прикреплять файлы к сообщениям
Вы не можете скачивать файлы