Joseph and The Coat of Many Color / Иосиф и разноцветный плащ (Ричард Слапчински / Richard Slapczynski) [1999, Мультфильм, семейный, DVDRip] Dub

Ответить на тему
 
Автор Сообщение

user ®

Стаж: 13 лет

Сообщений: 15041

Пост Пост: #1 от 27-Июн-2015 21:51

[Цитировать]

Joseph and The Coat of Many Color
Иосиф и разноцветный плащ
Страна: Австралия
Жанр: Мультфильм, семейный
Продолжительность: 00:49:25
Год выпуска: 1999
Перевод: Профессиональный (дублированный)
Русские субтитры: нет
Режиссёр: Ричард Слапчински / Richard Slapczynski-Описание: Было у Иакова двенадцать сыновей. Иосифа любил он больше остальных, отчего тот возгордился. Обиженные братья тайком от отца продали его работорговцам. Испытания сделали Иосифа мудрым и прозорливым. Он был замечен самим фараоном и назначен правителем Египта. И все это время с ним был плащ, подаренный отцом, как напоминание о прошлой жизни, прошлых ошибках и обидах.-Качество: DVDRip
Формат: AVI
Видео: XviD, 688x528 (4:3), 25 fps, ~1800 kbps
Аудио: mp3, 48 kHz, 2 ch, 192 kbps (Rus)
Субтитры: отсутствуют
Релиз: Подробные технические данные
ОбщееПолное имя : E:\MULTFILMS\Joseph and The Coat of Many Color.aviФормат : AVIФормат/Информация : Audio Video InterleaveРазмер файла : 698 МбайтПродолжительность : 49 м.Общий поток : 1975 Кбит/секПрограмма кодирования : VirtualDubMod 1.5.10.2 (build 2542/release)Библиотека кодирования : VirtualDub build 28346/release
ВидеоИдентификатор : 0Формат : MPEG-4 VisualПрофиль формата : Advanced Simple@L5Параметр BVOP формата : 1Параметр QPel формата : НетПараметр GMC формата : Без точки переходаПараметр матрицы формата : ВыборочнаяИдентификатор кодека : XVIDИдентификатор кодека/Подсказка : XviDПродолжительность : 49 м.Битрейт : 1773 Кбит/секШирина : 688 пикселейВысота : 528 пикселейСоотношение сторон : 4:3Частота кадров : 25,000 кадров/секЦветовое пространство : YUVСубдискретизация насыщенности : 4:2:0Битовая глубина : 8 битТип развёртки : ПрогрессивнаяМетод сжатия : С потерямиБит/(Пиксели*Кадры) : 0.195Размер потока : 627 Мбайт (90%)Библиотека кодирования : XviD 65
АудиоИдентификатор : 1Формат : MPEG AudioВерсия формата : Version 1Профиль формата : Layer 3Режим : Joint stereoИдентификатор кодека : 55Идентификатор кодека/Подсказка : MP3Продолжительность : 49 м.Вид битрейта : ПостоянныйБитрейт : 192 Кбит/секКаналы : 2 каналаЧастота : 48,0 КГцМетод сжатия : С потерямиРазмер потока : 67,9 Мбайт (10%)Выравнивание : Разделение по промежуткамПродолжительность промежутка : 40 мс. (1,00 видеокадр)Время предзагрузки промежутка : 500 мс.
Скриншоты
Скачать

Скачать торрент! Joseph and The Coat of Many Color / Иосиф и разноцветный плащ (Ричард Слапчински / Richard Slapczynski) [1999, Мультфильм, семейный, DVDRip] Dub

Как скачивать? · Что такое торрент? · Рейтинг и ограничения

Сайт не распространяет и не хранит электронные версии произведений, а лишь предоставляет доступ к создаваемому пользователями каталогу ссылок на торрент-файлы, которые содержат только списки хеш-сумм

[Профиль] [ЛС]

Викулля

Стаж: 7 лет 2 месяца

Сообщений: 1

Пост Пост: #2 от 04-Дек-2015 07:32 (спустя 5 месяцев 6 дней)

[Цитировать]

Прекрасный мультфильм,в детстве его смотрела)
[Профиль] [ЛС]
Показать сообщения:    
Ответить на тему

Текущее время: Сегодня 04:36

Часовой пояс: GMT + 4



Вы не можете начинать темы
Вы не можете отвечать на сообщения
Вы не можете редактировать свои сообщения
Вы не можете удалять свои сообщения
Вы не можете голосовать в опросах
Вы не можете прикреплять файлы к сообщениям
Вы не можете скачивать файлы