Единичка (Кирилл Белевич) [2015, военный, драма, DVDRip]

Ответить на тему
 
Автор Сообщение

user ®

Стаж: 7 лет 7 месяцев

Сообщений: 20008

Пост Пост: #1 от 27-Июн-2015 21:51

[Цитировать]

Единичка
Жанр: военный, драма
Год выпуска: 2015
Продолжительность: 01:44:55
Режиссёр: Кирилл Белевич
В ролях: Андрей Мерзликин, Илья Коробко, Анна Прус, Арина Борисова, Александр Вершинин, Михаил Евланов, Микаэл Джанибекян, Сергей Габриэлян, Добрыня Белевич-Оболенский, Якуб Здруйковский
Описание: Август 1944-го. Советские войска продолжают наступление в Восточной Польше. Подразделение старшего лейтенанта Егорова получает задание - удержать мост, через который планируется переправа частей Советской Армии. Прибыв на позицию, бойцы обнаруживают разрушенный монастырь, а в нем - группу глухих сирот с воспитательницей Евой. Утратив веру, она нашла смысл жизни в спасении немощных и беззащитных детей. Лейтенант Егоров оказывается перед сложным выбором - выполняя приказ командования, он будет вынужден поставить под угрозу жизнь маленьких поляков. Артиллеристы изо всех сил стараются не допустить смерти детей...
Сэмпл: http://multi-up.com/1055799
Качество видео: DVDRip
Формат видео: AVI
Видео: 720x304 (2.35:1), 25 fps, XviD 1.2.1~1531 kbps avg, 0.280 bit/pixel
Аудио: 48 kHz, AC3 Dolby Digital, 6 ch, ~448 kbps
MediaInfo
General
Complete name : F:\Download\Edini4ka.2015.avi
Format : AVI
Format/Info : Audio Video Interleave
File size : 1.46 GiB
Duration : 1h 44mn
Overall bit rate : 1 989 Kbps
Movie name :
Director : Carl Gaus
Writing application : VirtualDubMod 1.5.10.3 | www.virtualdub-fr.org || (build 2550/release)
Copyright : UNIONGANG&RUSTORRENTS [Thanks for LIZARD]
Video
ID : 0
Format : MPEG-4 Visual
Format profile : Advanced Simple@L5
Format settings, BVOP : 2
Format settings, QPel : No
Format settings, GMC : No warppoints
Format settings, Matrix : Default (MPEG)
Muxing mode : Packed bitstream
Codec ID : XVID
Codec ID/Hint : XviD
Duration : 1h 44mn
Bit rate : 1 531 Kbps
Width : 720 pixels
Height : 304 pixels
Display aspect ratio : 2.35:1
Frame rate : 25.000 fps
Color space : YUV
Chroma subsampling : 4:2:0
Bit depth : 8 bits
Scan type : Progressive
Compression mode : Lossy
Bits/(Pixel*Frame) : 0.280
Stream size : 1.12 GiB (77%)
Writing library : XviD 1.2.1 (UTC 2008-12-04)
Audio
ID : 1
Format : AC-3
Format/Info : Audio Coding 3
Mode extension : CM (complete main)
Format settings, Endianness : Big
Codec ID : 2000
Duration : 1h 44mn
Bit rate mode : Constant
Bit rate : 448 Kbps
Channel(s) : 6 channels
Channel positions : Front: L C R, Side: L R, LFE
Sampling rate : 48.0 KHz
Compression mode : Lossy
Stream size : 336 MiB (23%)
Alignment : Split accross interleaves
Interleave, duration : 40 ms (1.00 video frame)
Interleave, preload duratio : 500 ms
Скриншот c названием фильма Скриншоты
Скачать

Скачать торрент!

Как скачивать? · Что такое торрент? · Рейтинг и ограничения

Сайт не распространяет и не хранит электронные версии произведений, а лишь предоставляет доступ к создаваемому пользователями каталогу ссылок на торрент-файлы, которые содержат только списки хеш-сумм

[Профиль] [ЛС]
Показать сообщения:    
Ответить на тему

Текущее время: Сегодня 00:04

Часовой пояс: GMT + 4



Вы не можете начинать темы
Вы не можете отвечать на сообщения
Вы не можете редактировать свои сообщения
Вы не можете удалять свои сообщения
Вы не можете голосовать в опросах
Вы не можете прикреплять файлы к сообщениям
Вы не можете скачивать файлы