22 июня, ровно в 4 часа (Борис Галкин) [1992, Cоциальная драма, SATRip]

Ответить на тему
 
Автор Сообщение

user ®

Стаж: 7 лет 7 месяцев

Сообщений: 20008

Пост Пост: #1 от 27-Июн-2015 18:45

[Цитировать]

22 июня, ровно в 4 часа
Жанр: Cоциальная драма
Год выпуска: 1992
Продолжительность: 1:33:32
Режиссёр: Борис Галкин
В ролях: Сергей Паршин, Александр Паршин, Ирина Розанова, Антонина Шуранова, Сергей Арцибашев, Борис Батуев, Анна Белова, Полина Белова, Сергей Волкош, Александр Галкин, Борис Галкин, Владислав Галкин, Лилия Гурова, Наталья Дикарева, Елена Стародуб, Владимир Ермилов, Валерий Захарьев, Евгений Леонов-Гладышев, Николай Крюков, Татьяна Лисицына, М. Сенькина, Константин Титов
Описание: Последние мирные дни перед войной. Капитан Василий Брагин получает отпуск и едет в Ленинград за своей семьей. Ряд событий, порой трагических, обрушивается на его друзей, меняя планы на отпуск. В город герой попадает только 22 июня (1941 года) в четыре часа утра...
Доп. информация: Производство: Ладога (Ленфильм)
Сэмпл: https://www.sendspace.com/file/31jhpo
Качество видео: SATRip
Формат видео: AVI
Видео: XviD MPEG-4 , 704x528 (1.33:1) , 25 fps , 2 025 Kbps
Аудио: AC3 , 48 kHz , 192.00 kbps avg , 2/0 (L,R) ch
MediaInfo
Complete name 22 июня ровно в 4 часа 1992.avi
Format : AVI
Format/Info : Audio Video Interleave
File size : 1.46 GiB
Duration : 1h 33mn
Overall bit rate : 2 227 Kbps
Writing library : VirtualDub build 35491/release
Video
ID : 0
Format : MPEG-4 Visual
Format profile : Advanced Simple@L5
Format settings, BVOP : 2
Format settings, QPel : No
Format settings, GMC : No warppoints
Format settings, Matrix : Default (H.263)
Codec ID : XVID
Codec ID/Hint : XviD
Duration : 1h 33mn
Bit rate : 2 025 Kbps
Width : 704 pixels
Height : 528 pixels
Display aspect ratio : 4:3
Frame rate : 25.000 fps
Color space : YUV
Chroma subsampling : 4:2:0
Bit depth : 8 bits
Scan type : Progressive
Compression mode : Lossy
Bits/(Pixel*Frame) : 0.218
Stream size : 1.32 GiB (91%)
Writing library : XviD 1.2.1 (UTC 2008-12-04)
Audio
ID : 1
Format : AC-3
Format/Info : Audio Coding 3
Mode extension : CM (complete main)
Format settings, Endianness : Big
Codec ID : 2000
Duration : 1h 33mn
Bit rate mode : Constant
Bit rate : 192 Kbps
Channel(s) : 2 channels
Channel positions : Front: L R
Sampling rate : 48.0 KHz
Bit depth : 16 bits
Compression mode : Lossy
Stream size : 128 MiB (9%)
Alignment : Aligned on interleaves
Interleave, duration : 40 ms (1.00 video frame)
Interleave, preload duratio : 512 ms
Скриншоты
Скачать

Скачать торрент!

Как скачивать? · Что такое торрент? · Рейтинг и ограничения

Сайт не распространяет и не хранит электронные версии произведений, а лишь предоставляет доступ к создаваемому пользователями каталогу ссылок на торрент-файлы, которые содержат только списки хеш-сумм

[Профиль] [ЛС]
Показать сообщения:    
Ответить на тему

Текущее время: Сегодня 22:35

Часовой пояс: GMT + 4



Вы не можете начинать темы
Вы не можете отвечать на сообщения
Вы не можете редактировать свои сообщения
Вы не можете удалять свои сообщения
Вы не можете голосовать в опросах
Вы не можете прикреплять файлы к сообщениям
Вы не можете скачивать файлы