Стражи Галактики / Guardians of the Galaxy (Джеймс Ганн / James Gunn) [2014, США, Великобритания, фантастика, боевик, приключения, BDRip 108p] Dub + MVO + 3x AVO (Сербин, Живов, Карповский) + 2x VO (Есарев, Матвеев) + Sub Rus, Ukr, Eng + Original Eng

Ответить на тему
 
Автор Сообщение

user ®

Стаж: 7 лет 7 месяцев

Сообщений: 20008

Пост Пост: #1 от 27-Июн-2015 12:33

[Цитировать]

Стражи Галактики / Guardians of the Galaxy / IMAX Edition Страна: США, Великобритания
Студия: Marvel Enterprises, Marvel Studios, Moving Picture Company
Жанр: фантастика, боевик, приключения
Год выпуска: 2014
Продолжительность: 02:00:51
Перевод 1: Профессиональный (дублированный) Blu-ray EUR
Перевод 2: Профессиональный (многоголосый закадровый) Омикрон
Перевод 3: Авторский (одноголосый закадровый) Сербин
Перевод 4: Авторский (одноголосый закадровый) Живов
Перевод 5: Авторский (одноголосый закадровый) Карповский
Перевод 6: Одноголосый (закадровый) Матвеев
Перевод 7: Одноголосый (закадровый) Есарев
Cубтитры: русские (forced, full,voronine full-с переводом всех песен), украинские (forced), английские (full, SDH, SDH COLORED, Commentary)
Оригинальная аудиодорожка: английский
Режиссер: Джеймс Ганн / James Gunn
В ролях: Крис Прэтт, Зои Салдана, Дэйв Батиста, Вин Дизель, Брэдли Купер, Ли Пейс, Майкл Рукер, Карен Гиллан, Джимон Хонсу, Джон Си Райли
Описание: Отважному путешественнику Питеру Квиллу попадает в руки таинственный артефакт, принадлежащий могущественному и безжалостному злодею Ронану, строящему коварные планы по захвату Вселенной. Питер оказывается в центре межгалактической охоты, где жертва — он сам. Единственный способ спасти свою жизнь — объединиться с четверкой нелюдимых изгоев: воинственным енотом по кличке Ракета, человекоподобным деревом Грутом, смертельно опасной Гаморой и одержимым жаждой мести Драксом, также известным как Разрушитель. Когда Квилл понимает, какой силой обладает украденный артефакт и какую опасность он представляет для вселенной, одиночка пойдет на все, чтобы сплотить случайных союзников для решающей битвы за судьбу галактики.

Тип релиза: BDRip 1080p [Ivandro]
Контейнер: MKV
Видео: AVC, 1920x1080, 17000Kbps, 23.976 fps
Аудио 1: Russian: 48 kHz, AC3, 3/2 (L,C,R,l,r) + LFE ch, ~640.00 kbps avg |Blu-ray EUR|
Аудио 2: Russian: 48 kHz, DTS, 3/2 (L,C,R,l,r) + LFE ch, ~1536.00 kbps avg |«Омикрон»|
Аудио 3: Ukrainian: 48 kHz, DTS, 3/2 (L,C,R,l,r) + LFE ch, ~1536.00 kbps avg |Disney / Buena Vista|
Аудио 4: Russian: 48 kHz, DTS, 3/2 (L,C,R,l,r) + LFE ch, ~1536.00 kbps avg |Сербин|
Аудио 5: Russian: 48 kHz, DTS, 3/2 (L,C,R,l,r) + LFE ch, ~1536.00 kbps avg |Живов|
Аудио 6: Russian: 48 kHz, DTS, 3/2 (L,C,R,l,r) + LFE ch, ~1536.00 kbps avg |Карповский|
Аудио 7: Russian: 48 kHz, DTS, 3/2 (L,C,R,l,r) + LFE ch, ~1536.00 kbps avg |Матвеев|
Аудио 8: Russian: 48 kHz, DTS, 3/2 (L,C,R,l,r) + LFE ch, ~1536.00 kbps avg |Есарев|
Аудио 9: English: 48 kHz, DTS, 3/2 (L,C,R,l,r) + LFE ch, ~1536.00 kbps avg kbps |Original|
Аудио 10: English: 48 kHz, AC3, 2/0 (L,R) ch, ~192.00 kbps avg |Commentary with Director James Gunn|
Чаптеры: есть

Доп.информация
Перевод и озвучивание осуществлено студией «Омикрон» в рамках сервиса "Озвучивание". Спонсоры: cps3113, banan58, xRym, yuriker, kinomexanik, grizlii, ultrajeka, MustangerStr, shtift, LexKox, Razum, rassvet, Redrum, melanin, PoHHaN, Confidence, Latander, iiiMia, Pertcev, kirill_sky, king3, lemonarium, wildhealer, Armless, Evgecha_72, Joke83, anton48, WitW, DronNew, Carpenter, ZeRoNe, Andresoff, di9383, semerka, dilnix, дамбо, Ден03ис, lex077.
За перевод Юрия Сербина говорим спасибо: urassiks, Skoped, ultrajeka, Nadoelo, MyxAmoP, kondratzx, ZeDOK, HPotter, luka69, ANISKIN50, masta, foxlight, Некрасов, dsk71, Slimka, Loki1982, dark1982, dvd100, carnivale, Ramis, vik19662007, blackmore, Palmer Eldritch, Andrey_Tula, rammzez, Alexbeer, GKillah, ilbilb, Iceman, Gross1978, Эдуард, Chistobaev, Roman Lee, semargl, пуля, Letyoha3, Gangster, DB73, aladdin911, denis_mgn_1987, maximus10-99, ARTYq, dir.
За перевод Живова говорим спасибо:Gross1978, ultrajeka, Denis1980, _MyxAmoP_, kondratzx, hulahup, Chistobaev, ZeRoNe, Role, Cyberclean, Luka69, AndreyTula, Tagansky, kolibri2, Shumway, Gangster, Krasnovv, Jiraya87, vovyanskiy.
За перевод Карповского говорим спасибо: Rammzez, Savely, luka69, Serene, Andrey_Tula, ultrajeka, urassiks, DB73, zeleniy, ZeDOK, fryak, Alexbeer, SJC, vik19662007, kondratzx, Slimka, ilbilb, safreks, Guyver, Gouzer, kro44i, Селиванов u78, Внук Den, semargl, Gangster, dark1982, Gross1978, Blackmore, Madoff, MyxAmoP, Skazhutin, maximus10-99, carnivale, saigons, Lee Ray.
Перевод Дмитрия Есарева доступен благодаря пользователям: HDtracker и Переулка Переводмана: ZeRoNe, ultrajeka, vadamk, budulaj965, mihey10, Loki.
Перевод Матвеева доступен благодаря пользователям- будулайроманов, dikii
За сабы-включая перевод всех песен- voronine.
x264 log
x264 [info]: frame I:1615 Avg QP:10.65 size:194702
x264 [info]: frame P:52628 Avg QP:11.38 size:118381
x264 [info]: frame B:119612 Avg QP:13.46 size:74107
x264 [info]: consecutive B-frames: 9.6% 5.1% 16.7% 16.5% 21.9% 27.5% 2.0% 0.2% 0.4%
MediaInfo
General
Unique ID : 210221008543576815803176989944068254329 (0x9E2717F189DF227D9A8AB3CEBF0D2A79)
Complete name : D:\рипы\Guardians.of.the.Galaxy.2014.IMAX Edition.1080p.BluRay.DTS.x264-Talian-.mkv
Format : Matroska
Format version : Version 2
File size : 25.3 GiB
Duration : 2h 1mn
Overall bit rate : 29.8 Mbps
Movie name : Guardians of the Galaxy-Talian-
Encoded date : UTC 2015-06-26 08:30:10
Writing application : mkvmerge v5.7.0 ('The Whirlwind') built on Jul 8 2012 20:08:51
Writing library : libebml v1.2.3 + libmatroska v1.3.0
Video
ID : 1
Format : AVC
Format/Info : Advanced Video Codec
Format profile : High@L4.1
Format settings, CABAC : Yes
Format settings, ReFrames : 4 frames
Codec ID : V_MPEG4/ISO/AVC
Duration : 2h 1mn
Bit rate : 17.0 Mbps
Width : 1 920 pixels
Height : 1 080 pixels
Display aspect ratio : 16:9
Frame rate : 23.976 fps
Color space : YUV
Chroma subsampling : 4:2:0
Bit depth : 8 bits
Scan type : Progressive
Bits/(Pixel*Frame) : 0.342
Stream size : 13.8 GiB (55%)
Title : Ivandro
Writing library : x264 core 146 r2538 121396c
Encoding settings : cabac=1 / ref=4 / deblock=1:-3:-3 / analyse=0x3:0x133 / me=umh / subme=10 / psy=1 / psy_rd=1.05:0.05 / mixed_ref=1 / me_range=32 / chroma_me=1 / trellis=2 / 8x8dct=1 / cqm=0 / deadzone=21,11 / fast_pskip=0 / chroma_qp_offset=-3 / threads=18 / lookahead_threads=3 / sliced_threads=0 / nr=0 / decimate=1 / interlaced=0 / bluray_compat=0 / constrained_intra=0 / bframes=8 / b_pyramid=2 / b_adapt=2 / b_bias=0 / direct=3 / weightb=1 / open_gop=0 / weightp=2 / keyint=250 / keyint_min=23 / scenecut=40 / intra_refresh=0 / rc_lookahead=40 / rc=2pass / mbtree=0 / bitrate=17000 / ratetol=1.0 / qcomp=0.70 / qpmin=0 / qpmax=69 / qpstep=4 / cplxblur=20.0 / qblur=0.5 / vbv_maxrate=62500 / vbv_bufsize=78125 / nal_hrd=none / filler=0 / ip_ratio=1.30 / pb_ratio=1.20 / aq=3:0.75
Language : English
Default : Yes
Forced : No
Audio #1
ID : 2
Format : AC-3
Format/Info : Audio Coding 3
Mode extension : CM (complete main)
Format settings, Endianness : Big
Codec ID : A_AC3
Duration : 2h 1mn
Bit rate mode : Constant
Bit rate : 640 Kbps
Channel(s) : 6 channels
Channel positions : Front: L C R, Side: L R, LFE
Sampling rate : 48.0 KHz
Bit depth : 16 bits
Compression mode : Lossy
Stream size : 555 MiB (2%)
Title : DUB- Blu-ray EUR
Language : Russian
Default : Yes
Forced : No
Audio #2
ID : 3
Format : DTS
Format/Info : Digital Theater Systems
Codec ID : A_DTS
Duration : 2h 1mn
Bit rate mode : Constant
Bit rate : 1 510 Kbps
Channel(s) : 6 channels
Channel positions : Front: L C R, Side: L R, LFE
Sampling rate : 48.0 KHz
Bit depth : 24 bits
Compression mode : Lossy
Stream size : 1.28 GiB (5%)
Title : МVO-«Омикрон»
Language : Russian
Default : No
Forced : No
Audio #3
ID : 4
Format : DTS
Format/Info : Digital Theater Systems
Codec ID : A_DTS
Duration : 2h 1mn
Bit rate mode : Constant
Bit rate : 1 510 Kbps
Channel(s) : 6 channels
Channel positions : Front: L C R, Side: L R, LFE
Sampling rate : 48.0 KHz
Bit depth : 24 bits
Compression mode : Lossy
Stream size : 1.28 GiB (5%)
Title : DUB-Disney / Buena Vista
Language : Ukrainian
Default : No
Forced : No
Audio #4
ID : 5
Format : DTS
Format/Info : Digital Theater Systems
Codec ID : A_DTS
Duration : 2h 1mn
Bit rate mode : Constant
Bit rate : 1 510 Kbps
Channel(s) : 6 channels
Channel positions : Front: L C R, Side: L R, LFE
Sampling rate : 48.0 KHz
Bit depth : 24 bits
Compression mode : Lossy
Stream size : 1.28 GiB (5%)
Title : AVO-Ю.Сербин
Language : Russian
Default : No
Forced : No
Audio #5
ID : 6
Format : DTS
Format/Info : Digital Theater Systems
Codec ID : A_DTS
Duration : 2h 1mn
Bit rate mode : Constant
Bit rate : 1 510 Kbps
Channel(s) : 6 channels
Channel positions : Front: L C R, Side: L R, LFE
Sampling rate : 48.0 KHz
Bit depth : 24 bits
Compression mode : Lossy
Stream size : 1.28 GiB (5%)
Title : AVO- Ю.Живов
Language : Russian
Default : No
Forced : No
Audio #6
ID : 7
Format : DTS
Format/Info : Digital Theater Systems
Codec ID : A_DTS
Duration : 2h 1mn
Bit rate mode : Constant
Bit rate : 1 510 Kbps
Channel(s) : 6 channels
Channel positions : Front: L C R, Side: L R, LFE
Sampling rate : 48.0 KHz
Bit depth : 24 bits
Compression mode : Lossy
Stream size : 1.28 GiB (5%)
Title : AVO-А.Карповский
Language : Russian
Default : No
Forced : No
Audio #7
ID : 8
Format : DTS
Format/Info : Digital Theater Systems
Codec ID : A_DTS
Duration : 2h 1mn
Bit rate mode : Constant
Bit rate : 1 510 Kbps
Channel(s) : 6 channels
Channel positions : Front: L C R, Side: L R, LFE
Sampling rate : 48.0 KHz
Bit depth : 24 bits
Compression mode : Lossy
Stream size : 1.28 GiB (5%)
Title : VO-А.Матвеев
Language : Russian
Default : No
Forced : No
Audio #8
ID : 9
Format : DTS
Format/Info : Digital Theater Systems
Codec ID : A_DTS
Duration : 2h 1mn
Bit rate mode : Constant
Bit rate : 1 510 Kbps
Channel(s) : 6 channels
Channel positions : Front: L C R, Side: L R, LFE
Sampling rate : 48.0 KHz
Bit depth : 24 bits
Compression mode : Lossy
Stream size : 1.28 GiB (5%)
Title : VO-Д.Есарев
Language : Russian
Default : No
Forced : No
Audio #9
ID : 10
Format : DTS
Format/Info : Digital Theater Systems
Codec ID : A_DTS
Duration : 2h 1mn
Bit rate mode : Constant
Bit rate : 1 510 Kbps
Channel(s) : 6 channels
Channel positions : Front: L C R, Side: L R, LFE
Sampling rate : 48.0 KHz
Bit depth : 24 bits
Compression mode : Lossy
Stream size : 1.28 GiB (5%)
Title : Original
Language : English
Default : No
Forced : No
Audio #10
ID : 11
Format : AC-3
Format/Info : Audio Coding 3
Mode extension : CM (complete main)
Format settings, Endianness : Big
Codec ID : A_AC3
Duration : 2h 1mn
Bit rate mode : Constant
Bit rate : 192 Kbps
Channel(s) : 2 channels
Channel positions : Front: L R
Sampling rate : 48.0 KHz
Bit depth : 16 bits
Compression mode : Lossy
Stream size : 166 MiB (1%)
Title : Commentary by by director James Gunn
Language : English
Default : No
Forced : No
Text #1
ID : 12
Format : UTF-8
Codec ID : S_TEXT/UTF8
Codec ID/Info : UTF-8 Plain Text
Title : Sub-Forced
Language : Russian
Default : Yes
Forced : No
Text #2
ID : 13
Format : UTF-8
Codec ID : S_TEXT/UTF8
Codec ID/Info : UTF-8 Plain Text
Title : Sub-Full-BD
Language : Russian
Default : No
Forced : No
Text #3
ID : 14
Format : UTF-8
Codec ID : S_TEXT/UTF8
Codec ID/Info : UTF-8 Plain Text
Title : Sub-full-voronine
Language : Russian
Default : No
Forced : No
Text #4
ID : 15
Format : UTF-8
Codec ID : S_TEXT/UTF8
Codec ID/Info : UTF-8 Plain Text
Title : Sub-Forced
Language : Ukrainian
Default : No
Forced : No
Text #5
ID : 16
Format : UTF-8
Codec ID : S_TEXT/UTF8
Codec ID/Info : UTF-8 Plain Text
Title : Sub-Full
Language : English
Default : No
Forced : No
Text #6
ID : 17
Format : UTF-8
Codec ID : S_TEXT/UTF8
Codec ID/Info : UTF-8 Plain Text
Title : Sub- SDH
Language : English
Default : No
Forced : No
Text #7
ID : 18
Format : UTF-8
Codec ID : S_TEXT/UTF8
Codec ID/Info : UTF-8 Plain Text
Title : Sub- SDH Colored
Language : English
Default : No
Forced : No
Text #8
ID : 19
Format : UTF-8
Codec ID : S_TEXT/UTF8
Codec ID/Info : UTF-8 Plain Text
Title : Sub-commentary
Language : English
Default : No
Forced : No
Menu
00:00:00.000 : en:Prologue
00:04:05.703 : en:Morag
00:11:21.806 : en:Ronan The Accuser
00:15:21.712 : en:A Man Of Honor
00:20:54.419 : en:The Kyln
00:27:11.212 : en:Crimes Against The Galaxy
00:33:58.828 : en:Escaping The Kyln
00:44:28.290 : en:Knowhere
00:50:53.008 : en:I Do Not Dance
00:55:17.564 : en:The Collector
00:59:45.206 : en:Facing Off With Ronan
01:06:06.921 : en:Something Incredibly Heroic
01:14:46.023 : en:12 Percent Of A Plan
01:22:20.644 : en:The Fleet Approaches
01:26:29.726 : en:Inside The Dark Aster
01:30:23.876 : en:Destroying Xandar
01:35:58.377 : en:Protecting The Guardians
01:40:46.749 : en:Guardians Of The Galaxy
01:47:35.365 : en:Guardians Pardoned
01:53:16.623 : en:End Credits
02:00:10.828 : en:End Tag
Скриншоты
Source vs Encode



Скачать

Скачать торрент!

Как скачивать? · Что такое торрент? · Рейтинг и ограничения

Сайт не распространяет и не хранит электронные версии произведений, а лишь предоставляет доступ к создаваемому пользователями каталогу ссылок на торрент-файлы, которые содержат только списки хеш-сумм

[Профиль] [ЛС]
Показать сообщения:    
Ответить на тему

Текущее время: Сегодня 23:53

Часовой пояс: GMT + 4



Вы не можете начинать темы
Вы не можете отвечать на сообщения
Вы не можете редактировать свои сообщения
Вы не можете удалять свои сообщения
Вы не можете голосовать в опросах
Вы не можете прикреплять файлы к сообщениям
Вы не можете скачивать файлы