Последние рыцари / Last Knights (Казуаки Кирия / Kazuaki Kiriya) [2015, Чехия, Южная Корея, драма, боевик, приключения, BDRip-AVC] Dub + Original Eng + Sub (eng)

Ответить на тему
 
Автор Сообщение

user ®

Стаж: 7 лет 7 месяцев

Сообщений: 20008

Пост Пост: #1 от 27-Июн-2015 03:18

[Цитировать]

Последние рыцари / Last Knights
«Битва за честь, война за справедливость»

-
Страна: Чехия, Южная Корея
Жанр: драма, боевик, приключения
Год выпуска: 2015
Продолжительность: 01:54:54-Перевод: Профессиональный (дублированный) BD RUS
Cубтитры: английские-Режиссер: Казуаки Кирия / Kazuaki Kiriya
В ролях: Клайв Оуэн, Морган Фриман, Клифф Кёртис, Аксель Хенни, Цуёси Ихара, Шоре Агдашлу, Пейман Моаади, Ан Сон Ги, Пак Си Ен, Дэниэл Адегбойега
Описание: Средневековье, междоусобные распри раздирают королевство на мелкие анклавы, их правители наращивают собственные военные силы. Лишь истинный благородный воин — Король Барток — видит силу и будущее в единстве. При поддержке своих преданных и закаленных в сражениях рыцарей, он способен объединить земли. Но коварные враги уничтожают короля. И тогда его верные рыцари во имя высшей справедливости и отмщения чести своего господина выступают на штурм самой защищенной крепости королевства. Они готовятся взять реванш ценою собственных жизней.-Качество видео: BDRip-AVC [Blu-ray Disc HDCLub]
Формат видео: MKV-Видео: х.264, 1152x480 (2.35:1), 23.976 fps, ~1828 Кbps, 0.138 bit/pixel
Аудио 1: AC3 448 Кбит/сек (6 ch), 48,0 КГц, 16 бит | DUB
Аудио 2: AC3 448 Кбит/сек (6 ch), 48,0 КГц, 16 бит | ENG
Формат субтитров: SoftSub (SRT)
-- [url=http://***/forum/viewtopic.php?t=1677970] [/url]-
-
MediaInfo & log x264
log x264
x264 [info]: using SAR=1/1
x264 [info]: using cpu capabilities: MMX2 SSE2Fast SSSE3 SSE4.2
x264 [info]: profile High, level 4.1
x264 [info]: frame I:1450 Avg QP:14.74 size: 75209
x264 [info]: frame P:33768 Avg QP:18.47 size: 20338
x264 [info]: frame B:130089 Avg QP:21.12 size: 5954
x264 [info]: consecutive B-frames: 2.5% 3.6% 6.6% 14.4% 14.6% 33.2% 7.8% 3.6% 2.6% 2.1% 1.7% 1.9% 1.7% 1.9% 1.8%
x264 [info]: mb I I16..4: 12.9% 66.1% 21.0%
x264 [info]: mb P I16..4: 0.9% 6.5% 0.8% P16..4: 34.0% 34.9% 10.5% 1.6% 0.2% skip:10.6%
x264 [info]: mb B I16..4: 0.1% 0.6% 0.1% B16..8: 36.1% 15.1% 2.0% direct: 3.2% skip:42.9% L0:45.8% L1:47.0% BI: 7.2%
x264 [info]: 8x8 transform intra:76.4% inter:61.1%
x264 [info]: direct mvs spatial:97.2% temporal:2.8%
x264 [info]: coded y,uvDC,uvAC intra: 81.0% 58.5% 28.5% inter: 17.4% 7.2% 0.5%
x264 [info]: i16 v,h,dc,p: 13% 11% 8% 67%
x264 [info]: i8 v,h,dc,ddl,ddr,vr,hd,vl,hu: 8% 6% 6% 11% 15% 14% 14% 12% 13%
x264 [info]: i4 v,h,dc,ddl,ddr,vr,hd,vl,hu: 9% 7% 7% 10% 15% 14% 13% 11% 13%
x264 [info]: i8c dc,h,v,p: 32% 34% 19% 14%
x264 [info]: Weighted P-Frames: Y:11.5% UV:4.0%
x264 [info]: ref P L0: 45.4% 9.8% 17.5% 6.9% 5.6% 4.0% 3.4% 1.8% 2.1% 1.7% 1.4% 0.4% 0.0%
x264 [info]: ref B L0: 67.6% 13.5% 7.0% 3.5% 3.3% 1.9% 1.4% 0.9% 0.7% 0.2%
x264 [info]: ref B L1: 90.6% 9.4%
x264 [info]: kb/s:1822.20
General
Unique ID                   : 233307039220990424970631874222974594820 (0xAF854D2278081CC690AFD73CC3086F04)
Complete name               : D:\Last.Knights.2014.BDRipAVC_R.G.All_Films.mkv
Format                      : Matroska
Format version              : Version 4 / Version 2
File size                   : 2.18 GiB
Duration                    : 1h 54mn
Overall bit rate            : 2 720 Kbps
Movie name                  : Последние рыцари / Last Knights (2014) BDRipAVC by andre90
Encoded date                : UTC 2015-06-26 06:32:20
Writing application         : mkvmerge v8.0.0 ('Til The Day That I Die') 32bit
Writing library             : libebml v1.3.1 + libmatroska v1.4.2
Attachements                : poster
DURATION                    : 01:45:25.444000000
NUMBER_OF_FRAMES            : 925
NUMBER_OF_BYTES             : 31677
_STATISTICS_WRITING_APP     : mkvmerge v8.0.0 ('Til The Day That I Die') 32bit
_STATISTICS_WRITING_DATE_UT : 2015-06-26 06:32:20
_STATISTICS_TAGS            : BPS DURATION NUMBER_OF_FRAMES NUMBER_OF_BYTES
Video
ID                          : 1
Format                      : AVC
Format/Info                 : Advanced Video Codec
Format profile              : High@L4.1
Format settings, CABAC      : Yes
Format settings, ReFrames   : 11 frames
Codec ID                    : V_MPEG4/ISO/AVC
Duration                    : 1h 54mn
Bit rate                    : 1 828 Kbps
Width                       : 1 152 pixels
Height                      : 480 pixels
Display aspect ratio        : 2.40:1
Frame rate mode             : Constant
Frame rate                  : 23.976 fps
Color space                 : YUV
Chroma subsampling          : 4:2:0
Bit depth                   : 8 bits
Scan type                   : Progressive
Bits/(Pixel*Frame)          : 0.138
Stream size                 : 1.42 GiB (65%)
Writing library             : x264 core 146 r2538 121396c
Encoding settings           : cabac=1 / ref=11 / deblock=1:-1:-2 / analyse=0x3:0x133 / me=umh / subme=11 / psy=1 / psy_rd=0.90:0.00 / mixed_ref=1 / me_range=48 / chroma_me=1 / trellis=2 / 8x8dct=1 / cqm=0 / deadzone=21,11 / fast_pskip=0 / chroma_qp_offset=-2 / threads=6 / lookahead_threads=1 / sliced_threads=0 / nr=0 / decimate=1 / interlaced=0 / bluray_compat=0 / constrained_intra=0 / bframes=14 / b_pyramid=2 / b_adapt=2 / b_bias=0 / direct=3 / weightb=1 / open_gop=0 / weightp=2 / keyint=240 / keyint_min=23 / scenecut=40 / intra_refresh=0 / rc_lookahead=40 / rc=2pass / mbtree=1 / bitrate=1828 / ratetol=1.0 / qcomp=0.60 / qpmin=0 / qpmax=69 / qpstep=4 / cplxblur=20.0 / qblur=0.5 / vbv_maxrate=50000 / vbv_bufsize=62500 / nal_hrd=none / filler=0 / ip_ratio=1.40 / aq=2:1.00
Default                     : Yes
Forced                      : No
Audio #1
ID                          : 2
Format                      : AC-3
Format/Info                 : Audio Coding 3
Mode extension              : CM (complete main)
Format settings, Endianness : Big
Codec ID                    : A_AC3
Duration                    : 1h 54mn
Bit rate mode               : Constant
Bit rate                    : 448 Kbps
Channel(s)                  : 6 channels
Channel positions           : Front: L C R, Side: L R, LFE
Sampling rate               : 48.0 KHz
Compression mode            : Lossy
Stream size                 : 368 MiB (16%)
Language                    : Russian
Default                     : Yes
Forced                      : No
Audio #2
ID                          : 3
Format                      : AC-3
Format/Info                 : Audio Coding 3
Mode extension              : CM (complete main)
Format settings, Endianness : Big
Codec ID                    : A_AC3
Duration                    : 1h 54mn
Bit rate mode               : Constant
Bit rate                    : 448 Kbps
Channel(s)                  : 6 channels
Channel positions           : Front: L C R, Side: L R, LFE
Sampling rate               : 48.0 KHz
Compression mode            : Lossy
Stream size                 : 368 MiB (16%)
Language                    : English
Default                     : No
Forced                      : No
Text #1
ID                          : 4
Format                      : UTF-8
Codec ID                    : S_TEXT/UTF8
Codec ID/Info               : UTF-8 Plain Text
Language                    : English
Default                     : No
Forced                      : No
Text #2
ID                          : 5
Format                      : UTF-8
Codec ID                    : S_TEXT/UTF8
Codec ID/Info               : UTF-8 Plain Text
Title                       : SDH
Language                    : English
Default                     : No
Forced                      : No
Menu
00:00:00.000                : en:Chapter 1
00:08:40.228                : en:Chapter 2
00:13:49.995                : en:Chapter 3
00:20:30.646                : en:Chapter 4
00:25:03.793                : en:Chapter 5
00:36:28.978                : en:Chapter 6
00:41:27.568                : en:Chapter 7
00:47:23.090                : en:Chapter 8
00:55:18.189                : en:Chapter 9
01:02:25.992                : en:Chapter 10
01:09:51.520                : en:Chapter 11
01:16:57.696                : en:Chapter 12
01:24:38.907                : en:Chapter 13
01:28:57.874                : en:Chapter 14
01:37:16.539                : en:Chapter 15
01:42:57.171                : en:Chapter 16
скрытый текст
Скачать

Скачать торрент!

Как скачивать? · Что такое торрент? · Рейтинг и ограничения

Сайт не распространяет и не хранит электронные версии произведений, а лишь предоставляет доступ к создаваемому пользователями каталогу ссылок на торрент-файлы, которые содержат только списки хеш-сумм

[Профиль] [ЛС]
Показать сообщения:    
Ответить на тему

Текущее время: Сегодня 20:38

Часовой пояс: GMT + 4



Вы не можете начинать темы
Вы не можете отвечать на сообщения
Вы не можете редактировать свои сообщения
Вы не можете удалять свои сообщения
Вы не можете голосовать в опросах
Вы не можете прикреплять файлы к сообщениям
Вы не можете скачивать файлы