Энни / Annie (Уилл Глак / Will Gluck) [2014, США, мюзикл, драма, комедия, семейный, BDRip 720p] Dub (Rus, Ukr) + Sub Rus, Ukr, Eng + Original Eng

Ответить на тему
 
Автор Сообщение

user ®

Стаж: 7 лет 7 месяцев

Сообщений: 20008

Пост Пост: #1 от 26-Июн-2015 21:06

[Цитировать]

Энни / Annie
Страна: США
Жанр: мюзикл, драма, комедия, семейный
Год выпуска: 2014
Продолжительность: 01:58:23
Перевод: Профессиональный (дублированный) Rus, Ukr
Cубтитры: Rus, Ukr, Eng
Оригинальная аудиодорожка: английский
Режиссер: Уилл Глак / Will Gluck
В ролях: Куавенжане Уоллис, Джейми Фокс, Роуз Бирн, Кэмерон Диаз, Бобби Каннавале, Адевале Акинойе-Агбаже, Дэвид Зайас, Зои Маргарет Коллетти, Николетт Пьерини, Иден Дункан-Смит
Описание: Очаровательная и остроумная Энни живет в неприглядном приюте для сирот под присмотром зловредной воспитательницы. Но однажды, после встречи с богатым и успешным бизнесменом, ее унылая жизнь переворачивается…

Тип релиза: BDRip 720p
Контейнер: MKV
Видео: MPEG-4 AVC, 4874 Кбит/с, 1280x534, 23,976 fps
Аудио: Rus, AC3, 640 kb/s (6 ch), 48 kHz
Аудио 2: Ukr, AC3, 640 kb/s (6 ch), 48 kHz
Аудио 3: Eng, DTS, 1510 kb/s (6 ch), 48 kHz
Аудио 4: Eng, 48 kHz, AC3, 2/0 (L,R) ch, ~192.00 kbps avg - Commentary with Director Will Gluck
Формат субтитров: softsub (SRT)
MediaInfo
Format : Matroska
Format version : Version 4 / Version 2
File size : 6.63 GiB
Duration : 1h 58mn
Overall bit rate : 8 015 Kbps
Movie name : Annie (2014) - Release for HDCLUB
Encoded date : UTC 2015-06-26 12:38:25
Writing application : mkvmerge v7.1.0 ('Good Love') 64bit built on Jul 27 2014 13:06:55
Writing library : libebml v1.3.0 + libmatroska v1.4.1
DURATION : 01:57:19.537000000
NUMBER_OF_FRAMES : 1933
NUMBER_OF_BYTES : 68103
_STATISTICS_WRITING_APP : mkvmerge v7.1.0 ('Good Love') 64bit built on Jul 27 2014 13:06:55
_STATISTICS_WRITING_DATE_UTC : 2015-06-26 12:38:25
_STATISTICS_TAGS : BPS DURATION NUMBER_OF_FRAMES NUMBER_OF_BYTES
Video
ID : 1
Format : AVC
Format/Info : Advanced Video Codec
Format profile : High@L4.1
Format settings, CABAC : Yes
Format settings, ReFrames : 12 frames
Codec ID : V_MPEG4/ISO/AVC
Duration : 1h 58mn
Bit rate : 4 874 Kbps
Width : 1 280 pixels
Height : 534 pixels
Display aspect ratio : 2.40:1
Frame rate mode : Constant
Frame rate : 23.976 fps
Color space : YUV
Chroma subsampling : 4:2:0
Bit depth : 8 bits
Scan type : Progressive
Bits/(Pixel*Frame) : 0.297
Stream size : 4.03 GiB (61%)
Title : Annie (2014) - Release for HDCLUB
Writing library : x264 core 142 r2491 24e4fed
Encoding settings : cabac=1 / ref=12 / deblock=1:-3:-3 / analyse=0x3:0x133 / me=tesa / subme=11 / psy=1 / psy_rd=1.05:0.00 / mixed_ref=1 / me_range=24 / chroma_me=1 / trellis=2 / 8x8dct=1 / cqm=0 / deadzone=21,11 / fast_pskip=0 / chroma_qp_offset=-2 / threads=12 / lookahead_threads=3 / sliced_threads=0 / nr=0 / decimate=1 / interlaced=0 / bluray_compat=0 / constrained_intra=0 / bframes=11 / b_pyramid=2 / b_adapt=2 / b_bias=0 / direct=3 / weightb=1 / open_gop=0 / weightp=2 / keyint=250 / keyint_min=23 / scenecut=40 / intra_refresh=0 / rc=crf / mbtree=0 / crf=15.5 / qcomp=0.70 / qpmin=0 / qpmax=69 / qpstep=4 / ip_ratio=1.40 / pb_ratio=1.30 / aq=1:0.70
Language : English
Default : Yes
Forced : No
Matrix coefficients : BT.709
DURATION : 01:58:23.096000000
NUMBER_OF_FRAMES : 170304
NUMBER_OF_BYTES : 4465991622
_STATISTICS_WRITING_APP : mkvmerge v7.1.0 ('Good Love') 64bit built on Jul 27 2014 13:06:55
_STATISTICS_WRITING_DATE_UTC : 2015-06-26 12:38:25
_STATISTICS_TAGS : BPS DURATION NUMBER_OF_FRAMES NUMBER_OF_BYTES
Audio #1
ID : 2
Format : AC-3
Format/Info : Audio Coding 3
Mode extension : CM (complete main)
Format settings, Endianness : Big
Codec ID : A_AC3
Duration : 1h 58mn
Bit rate mode : Constant
Bit rate : 640 Kbps
Channel(s) : 6 channels
Channel positions : Front: L C R, Side: L R, LFE
Sampling rate : 48.0 KHz
Bit depth : 16 bits
Compression mode : Lossy
Stream size : 542 MiB (8%)
Title : AC3 5.1 @ 640 kbps - DUB, Blu-ray CEE
Language : Russian
Default : Yes
Forced : No
Audio #2
ID : 3
Format : AC-3
Format/Info : Audio Coding 3
Mode extension : CM (complete main)
Format settings, Endianness : Big
Codec ID : A_AC3
Duration : 1h 58mn
Bit rate mode : Constant
Bit rate : 640 Kbps
Channel(s) : 6 channels
Channel positions : Front: L C R, Side: L R, LFE
Sampling rate : 48.0 KHz
Bit depth : 16 bits
Compression mode : Lossy
Stream size : 542 MiB (8%)
Title : AC3 5.1 @ 640 kbps - DUB, Blu-ray CEE
Language : Ukrainian
Default : No
Forced : No
Audio #3
ID : 4
Format : DTS
Format/Info : Digital Theater Systems
Mode : 16
Format settings, Endianness : Big
Codec ID : A_DTS
Duration : 1h 58mn
Bit rate mode : Constant
Bit rate : 1 509 Kbps
Channel(s) : 6 channels
Channel positions : Front: L C R, Side: L R, LFE
Sampling rate : 48.0 KHz
Bit depth : 24 bits
Compression mode : Lossy
Stream size : 1.25 GiB (19%)
Title : DTS 5.1 @ 1536 kbps
Language : English
Default : No
Forced : No
Audio #4
ID : 5
Format : AC-3
Format/Info : Audio Coding 3
Format profile : Dolby Digital
Mode extension : CM (complete main)
Format settings, Endianness : Big
Codec ID : A_AC3
Duration : 1h 58mn
Bit rate mode : Constant
Bit rate : 192 Kbps
Channel(s) : 2 channels
Channel positions : Front: L R
Sampling rate : 48.0 KHz
Bit depth : 16 bits
Compression mode : Lossy
Stream size : 163 MiB (2%)
Title : AC3 2.0 @ 192 kbps - Commentary with Director Will Gluck
Language : English
Default : No
Forced : No
Text #1
ID : 6
Format : UTF-8
Codec ID : S_TEXT/UTF8
Codec ID/Info : UTF-8 Plain Text
Title : Forced, iTunes
Language : Russian
Default : Yes
Forced : No
Text #2
ID : 7
Format : UTF-8
Codec ID : S_TEXT/UTF8
Codec ID/Info : UTF-8 Plain Text
Title : iTunes
Language : Russian
Default : No
Forced : No
Text #3
ID : 8
Format : UTF-8
Codec ID : S_TEXT/UTF8
Codec ID/Info : UTF-8 Plain Text
Title : iTunes
Language : Ukrainian
Default : No
Forced : No
Text #4
ID : 9
Format : UTF-8
Codec ID : S_TEXT/UTF8
Codec ID/Info : UTF-8 Plain Text
Title : iTunes
Language : English
Default : No
Forced : No
Menu
00:00:00.000 : en:00:00:00.000
00:00:37.412 : en:00:00:37.412
00:00:54.972 : en:00:00:54.972
00:01:18.704 : en:00:01:18.704
00:01:34.177 : en:00:01:34.177
00:01:57.826 : en:00:01:57.826
00:02:22.476 : en:00:02:22.476
00:02:56.134 : en:00:02:56.134
00:03:04.810 : en:00:03:04.810
00:03:11.274 : en:00:03:11.274
00:03:18.532 : en:00:03:18.532
00:03:30.669 : en:00:03:30.669
00:03:43.306 : en:00:03:43.306
00:04:00.490 : en:00:04:00.490
00:04:06.955 : en:00:04:06.955
00:04:18.800 : en:00:04:18.800
00:04:33.064 : en:00:04:33.064
00:04:44.284 : en:00:04:44.284
00:05:37.337 : en:00:05:37.337
00:05:51.810 : en:00:05:51.810
00:06:01.736 : en:00:06:01.736
00:06:39.149 : en:00:06:39.149
00:06:51.328 : en:00:06:51.328
00:07:12.557 : en:00:07:12.557
00:07:32.869 : en:00:07:32.869
00:07:41.461 : en:00:07:41.461
00:08:07.320 : en:00:08:07.320
00:08:25.672 : en:00:08:25.672
00:08:49.988 : en:00:08:49.988
00:09:10.800 : en:00:09:10.800
00:09:38.369 : en:00:09:38.369
00:11:08.126 : en:00:11:08.126
00:12:29.499 : en:00:12:29.499
00:12:46.766 : en:00:12:46.766
00:13:30.309 : en:00:13:30.309
00:14:52.767 : en:00:14:52.767
00:15:15.873 : en:00:15:15.873
00:16:53.638 : en:00:16:53.638
00:17:33.511 : en:00:17:33.511
00:18:12.842 : en:00:18:12.842
00:18:27.690 : en:00:18:27.690
00:18:52.340 : en:00:18:52.340
00:19:05.227 : en:00:19:05.227
00:19:16.655 : en:00:19:16.655
00:20:01.158 : en:00:20:01.158
00:20:20.386 : en:00:20:20.386
00:21:00.134 : en:00:21:00.134
00:21:46.597 : en:00:21:46.597
00:22:09.036 : en:00:22:09.036
00:22:44.613 : en:00:22:44.613
00:24:05.110 : en:00:24:05.110
00:24:59.123 : en:00:24:59.123
00:25:46.837 : en:00:25:46.837
00:26:36.136 : en:00:26:36.136
00:26:47.689 : en:00:26:47.689
00:27:53.755 : en:00:27:53.755
00:28:19.907 : en:00:28:19.907
00:28:46.016 : en:00:28:46.016
00:29:55.002 : en:00:29:55.002
00:30:36.043 : en:00:30:36.043
00:30:53.351 : en:00:30:53.351
00:32:15.851 : en:00:32:15.851
00:33:38.391 : en:00:33:38.391
00:35:06.896 : en:00:35:06.896
00:36:58.258 : en:00:36:58.258
00:37:18.319 : en:00:37:18.319
00:37:54.522 : en:00:37:54.522
00:38:38.942 : en:00:38:38.942
00:39:20.775 : en:00:39:20.775
00:40:04.902 : en:00:40:04.902
00:41:24.232 : en:00:41:24.232
00:43:24.936 : en:00:43:24.936
00:45:22.929 : en:00:45:22.929
00:46:25.950 : en:00:46:25.950
00:47:05.823 : en:00:47:05.823
00:48:51.053 : en:00:48:51.053
00:51:20.703 : en:00:51:20.703
00:51:30.254 : en:00:51:30.254
00:52:15.924 : en:00:52:15.924
00:52:38.322 : en:00:52:38.322
00:53:40.926 : en:00:53:40.926
00:55:01.173 : en:00:55:01.173
00:56:01.358 : en:00:56:01.358
00:56:48.405 : en:00:56:48.405
00:57:24.191 : en:00:57:24.191
01:01:36.985 : en:01:01:36.985
01:02:38.505 : en:01:02:38.505
01:03:16.459 : en:01:03:16.459
01:03:54.789 : en:01:03:54.789
01:06:48.213 : en:01:06:48.213
01:06:59.390 : en:01:06:59.390
01:07:26.834 : en:01:07:26.834
01:08:34.902 : en:01:08:34.902
01:08:48.916 : en:01:08:48.916
01:10:07.745 : en:01:10:07.745
01:12:52.952 : en:01:12:52.952
01:13:30.489 : en:01:13:30.489
01:16:48.062 : en:01:16:48.062
01:18:42.092 : en:01:18:42.092
01:19:24.218 : en:01:19:24.218
01:20:04.591 : en:01:20:04.591
01:22:43.375 : en:01:22:43.375
01:24:27.020 : en:01:24:27.020
01:25:49.853 : en:01:25:49.853
01:30:40.810 : en:01:30:40.810
01:32:22.746 : en:01:32:22.746
01:34:26.160 : en:01:34:26.160
01:34:45.346 : en:01:34:45.346
01:37:50.239 : en:01:37:50.239
01:41:11.649 : en:01:41:11.649
01:42:51.916 : en:01:42:51.916
01:45:47.591 : en:01:45:47.591
01:48:40.889 : en:01:48:40.889
01:50:05.390 : en:01:50:05.390
01:50:22.491 : en:01:50:22.491
01:51:32.519 : en:01:51:32.519
01:52:19.775 : en:01:52:19.775
01:52:29.618 : en:01:52:29.618
Скриншоты
Скачать

Скачать торрент!

Как скачивать? · Что такое торрент? · Рейтинг и ограничения

Сайт не распространяет и не хранит электронные версии произведений, а лишь предоставляет доступ к создаваемому пользователями каталогу ссылок на торрент-файлы, которые содержат только списки хеш-сумм

[Профиль] [ЛС]
Показать сообщения:    
Ответить на тему

Текущее время: Сегодня 20:39

Часовой пояс: GMT + 4



Вы не можете начинать темы
Вы не можете отвечать на сообщения
Вы не можете редактировать свои сообщения
Вы не можете удалять свои сообщения
Вы не можете голосовать в опросах
Вы не можете прикреплять файлы к сообщениям
Вы не можете скачивать файлы