Страх сцены / Stage Fright (Джером Сэйбл / Jerome Sable) [2014, Канада, мюзикл, комедия, ужасы, BDRip 720p] MVO + Sub Rus, Eng + Original Eng

Ответить на тему
 
Автор Сообщение

user ®

Стаж: 7 лет 7 месяцев

Сообщений: 20008

Пост Пост: #1 от 25-Июн-2015 23:21

[Цитировать]

Страх сцены / Stage Fright
Страна: Канада
Жанр: мюзикл, комедия, ужасы
Год выпуска: 2014
Продолжительность: 01:28:20
Перевод: Профессиональный (многоголосый закадровый)
Cубтитры: русские (liosaa), английские
Оригинальная аудиодорожка: английский
Режиссер: Джером Сэйбл / Jerome Sable
В ролях: Элли МакДональд, Мит Лоаф, Дуглас Смит, Минни Драйвер, Брэндон Юрановитц, Мелани Лишман, Томас Алдерсон, Кент Нолан, Эфраим Эллис, Лиэнн Миллер
Описание: Кровожадный киллер в маске, вооруженный тесаком, терроризирует детскую театральную труппу, репетирующую новый мюзикл, поскольку люто их ненавидит (и детей, и мюзиклы)... А трепетная тёлочка с кухни (Элли МакДональд) всеми правдами и неправдами (в том числе, через постель) прёт навстречу намеченной цели -- исполнить прощальную арию матери (убитой на сцене ровно 10 лет назад)... ВСЕ ТАНЦУЮТ И ПОЮТ!!..
Доп. информация: ....субтитры набраны по переводу "Cinema Prestige", в авторской редакции и ритмической адаптации **liosaa** (можно подпевать по русски и в такт!).... рип с блю-рэя найден в сети.... английская дорожка стоит первой и включается по умолчанию вместе с русскими титрами (многоголоска, к сожалению, УБИЛА ВСЕ МУЗЫКАЛЬНЫЕ НОМЕРА нестихающим проговариванием текстов песен, до кучи купировав гей-тему и скабрезные куплеты маньяка).....
**СЭМПЛ**
Тип релиза: BDRip 720p
Контейнер: MKV
Видео: MPEG-4 AVC, 5574 Кбит/с, 1280x536, 23.976 кадр/с
Аудио 1: DTS, 6 ch, 1510 Кбит/с, 48,0 КГц (английский)
Аудио 2: АС3, 2 ch, 192 Кбит/с, 48,0 КГц (русский)
Формат субтитров: softsub (SRT)
MediaInfo
Формат : Matroska
Версия формата : Version 4 / Version 2
Размер файла : 4,49 Гбайт
Продолжительность : 1 ч. 28 м.
Общий поток : 7278 Кбит/сек
Дата кодирования : UTC 2015-06-25 02:28:36
Программа кодирования : mkvmerge v6.7.0 ('Back to the Ground') 32bit built on Jan 8 2014 15:03:17
Библиотека кодирования : libebml v1.3.0 + libmatroska v1.4.1
Видео
Идентификатор : 1
Формат : AVC
Формат/Информация : Advanced Video Codec
Профиль формата : High@L4.1
Параметр CABAC формата : Да
Параметр ReFrames формата : 5 кадров
Идентификатор кодека : V_MPEG4/ISO/AVC
Продолжительность : 1 ч. 28 м.
Битрейт : 5574 Кбит/сек
Ширина : 1280 пикселей
Высота : 536 пикселей
Соотношение сторон : 2,40:1
Режим частоты кадров : Постоянный
Частота кадров : 23,976 кадра/сек
Цветовое пространство : YUV
Субдискретизация насыщенности : 4:2:0
Битовая глубина : 8 бит
Тип развёртки : Прогрессивная
Бит/(Пиксели*Кадры) : 0.339
Размер потока : 3,35 Гбайт (75%)
Библиотека кодирования : x264 core 142 r2431 ac76440
Настройки программы : cabac=1 / ref=5 / deblock=1:0:0 / analyse=0x3:0x133 / me=umh / subme=7 / psy=1 / psy_rd=1.00:0.00 / mixed_ref=1 / me_range=16 / chroma_me=1 / trellis=1 / 8x8dct=1 / cqm=0 / deadzone=21,11 / fast_pskip=0 / chroma_qp_offset=-2 / threads=18 / lookahead_threads=3 / sliced_threads=0 / nr=0 / decimate=1 / interlaced=0 / bluray_compat=0 / constrained_intra=0 / bframes=3 / b_pyramid=2 / b_adapt=1 / b_bias=0 / direct=1 / weightb=1 / open_gop=0 / weightp=2 / keyint=250 / keyint_min=23 / scenecut=40 / intra_refresh=0 / rc_lookahead=40 / rc=2pass / mbtree=1 / bitrate=5574 / ratetol=1.0 / qcomp=0.60 / qpmin=0 / qpmax=69 / qpstep=4 / cplxblur=20.0 / qblur=0.5 / ip_ratio=1.40 / aq=1:1.00
Язык : English
Default : Нет
Forced : Нет
Аудио #1
Идентификатор : 2
Формат : DTS
Формат/Информация : Digital Theater Systems
Режим : 16
Параметр Endianness формата : Big
Идентификатор кодека : A_DTS
Продолжительность : 1 ч. 28 м.
Вид битрейта : Постоянный
Битрейт : 1509 Кбит/сек
Каналы : 6 каналов
Расположение каналов : Front: L C R, Side: L R, LFE
Частота : 48,0 КГц
Битовая глубина : 24 бит
Метод сжатия : С потерями
Задержка видео : 11 мс.
Размер потока : 953 Мбайт (21%)
Заголовок : DTS
Язык : English
Default : Да
Forced : Нет
Аудио #2
Идентификатор : 3
Формат : AC-3
Формат/Информация : Audio Coding 3
Расширение режима : CM (complete main)
Параметр Endianness формата : Big
Идентификатор кодека : A_AC3
Продолжительность : 1 ч. 28 м.
Вид битрейта : Постоянный
Битрейт : 192 Кбит/сек
Каналы : 2 канала
Расположение каналов : Front: L R
Частота : 48,0 КГц
Битовая глубина : 16 бит
Метод сжатия : С потерями
Размер потока : 121 Мбайт (3%)
Заголовок : MVO (Cinema Prestige)
Язык : Russian
Default : Нет
Forced : Нет
Текст #1
Идентификатор : 4
Формат : UTF-8
Идентификатор кодека : S_TEXT/UTF8
Идентификатор кодека/Информация : UTF-8 Plain Text
Заголовок : liosaa (correction)
Язык : Russian
Default : Да
Forced : Нет
Текст #2
Идентификатор : 5
Формат : UTF-8
Идентификатор кодека : S_TEXT/UTF8
Идентификатор кодека/Информация : UTF-8 Plain Text
Язык : English
Default : Нет
Forced : Нет
Меню
00:00:00.000 : en:00:00:00.000
00:07:26.321 : en:00:07:26.321
00:15:09.534 : en:00:15:09.534
00:21:54.188 : en:00:21:54.188
00:29:58.213 : en:00:29:58.213
00:38:16.961 : en:00:38:16.961
00:45:27.892 : en:00:45:27.892
00:53:34.795 : en:00:53:34.795
01:00:55.235 : en:01:00:55.235
01:08:08.293 : en:01:08:08.293
01:15:39.160 : en:01:15:39.160
01:24:28.021 : en:01:24:28.021
Скриншоты
Скачать

Скачать торрент!

Как скачивать? · Что такое торрент? · Рейтинг и ограничения

Сайт не распространяет и не хранит электронные версии произведений, а лишь предоставляет доступ к создаваемому пользователями каталогу ссылок на торрент-файлы, которые содержат только списки хеш-сумм

[Профиль] [ЛС]
Показать сообщения:    
Ответить на тему

Текущее время: Сегодня 21:18

Часовой пояс: GMT + 4



Вы не можете начинать темы
Вы не можете отвечать на сообщения
Вы не можете редактировать свои сообщения
Вы не можете удалять свои сообщения
Вы не можете голосовать в опросах
Вы не можете прикреплять файлы к сообщениям
Вы не можете скачивать файлы