Каникулы мечты / What We Did On Our Holiday (Энди Гамильтон / Andy Hamilton, Гай Дженкин / Guy Jenkin) [2014, Великобритания, комедия, драма, BDRip 1080p] MVO + Sub Rus, Eng + Original Eng

Ответить на тему
 
Автор Сообщение

user ®

Стаж: 7 лет 7 месяцев

Сообщений: 20008

Пост Пост: #1 от 25-Июн-2015 23:21

[Цитировать]

Каникулы мечты / What We Did On Our Holiday
Страна: Великобритания
Студия: BBC Films
Жанр: комедия, драма
Год выпуска: 2014
Продолжительность: 01:35:27
Перевод: Профессиональный (многоголосый закадровый)
Cубтитры: Rus, Eng
Оригинальная аудиодорожка: английский
Режиссер: Энди Гамильтон / Andy Hamilton, Гай Дженкин / Guy Jenkin
В ролях: Дэвид Теннант, Розамунд Пайк, Билли Коннолли, Селия Имри, Бен Миллер, Амелия Баллмор, Эмилия Джонс, Аннетт Кросби и др.
Описание: Что может быть лучше большого семейного праздника в Шотландии? Вся родня собирается на празднование юбилея дедушки Горди. Даг и Эби (брак трещит по швам) вместе с тремя чересчур болтливыми детьми тоже отправляются поздравить Горди. Но как убедить детей не болтать лишнего, дабы не расстроить деда, которому "недолго осталось"? Да и не в этом суть.

Тип релиза: BDRip 1080p
Контейнер: MKV
Видео: MPEG-4 AVC, 10.6 Mбит/с, 1916x1036, 23,976 fps
Аудио: Rus, AC3, 192 kb/s (2 ch), 48 kHz
Аудио 2: Eng, DTS, 768 kb/s (6 ch), 48 kHz
Формат субтитров: softsub (SRT)
MediaInfo
x264 [info]: frame I:1741 Avg QP:16.72 size:164103
x264 [info]: frame P:25110 Avg QP:17.50 size: 87847
x264 [info]: frame B:110462 Avg QP:18.25 size: 47450
Format : Matroska
Format version : Version 4 / Version 2
File size : 7.84 GiB
Duration : 1h 35mn
Overall bit rate : 11.8 Mbps
Movie name : Каникулы мечты. (Tonik)
Encoded date : UTC 2015-06-25 16:50:41
Writing application : mkvmerge v7.1.0 ('Good Love') 64bit built on Jul 27 2014 13:06:55
Writing library : libebml v1.3.0 + libmatroska v1.4.1
_STATISTICS_WRITING_APP : mkvmerge v7.1.0 ('Good Love') 64bit built on Jul 27 2014 13:06:55
_STATISTICS_WRITING_DATE_UTC : 2015-06-25 16:50:41
_STATISTICS_TAGS : BPS DURATION NUMBER_OF_FRAMES NUMBER_OF_BYTES
DURATION : 01:30:12.614000000
NUMBER_OF_FRAMES : 1332
NUMBER_OF_BYTES : 51359
Video
ID : 1
Format : AVC
Format/Info : Advanced Video Codec
Format profile : High@L4.1
Format settings, CABAC : Yes
Format settings, ReFrames : 4 frames
Codec ID : V_MPEG4/ISO/AVC
Duration : 1h 35mn
Bit rate : 10.6 Mbps
Width : 1 916 pixels
Height : 1 036 pixels
Display aspect ratio : 1.85:1
Frame rate mode : Constant
Frame rate : 23.976 fps
Color space : YUV
Chroma subsampling : 4:2:0
Bit depth : 8 bits
Scan type : Progressive
Bits/(Pixel*Frame) : 0.222
Stream size : 7.05 GiB (90%)
Writing library : x264 core 142 r2431+42 c69a006 tMod [8-bit@all X86_64]
Encoding settings : cabac=1 / ref=4 / deblock=1:-3:-3 / analyse=0x3:0x133 / me=umh / subme=9 / psy=1 / fade_compensate=0.00 / psy_rd=1.05:0.00 / mixed_ref=1 / me_range=24 / chroma_me=1 / trellis=2 / 8x8dct=1 / cqm=0 / deadzone=21,11 / fast_pskip=0 / chroma_qp_offset=-2 / threads=6 / lookahead_threads=1 / sliced_threads=0 / nr=0 / decimate=0 / interlaced=0 / bluray_compat=0 / constrained_intra=0 / fgo=0 / bframes=8 / b_pyramid=2 / b_adapt=2 / b_bias=0 / direct=3 / weightb=1 / open_gop=0 / weightp=2 / keyint=250 / keyint_min=23 / scenecut=40 / intra_refresh=0 / rc=crf / mbtree=0 / crf=19.0000 / qcomp=0.60 / qpmin=0:0:0 / qpmax=69:69:69 / qpstep=4 / ip_ratio=1.20 / pb_ratio=1.10 / aq=4:0.90 / aq-sensitivity=10.00 / aq-factor=1.00:1.00:1.00 / aq2=0 / aq3=0
Language : English
Default : Yes
Forced : No
DURATION : 01:35:27.097000000
NUMBER_OF_FRAMES : 137313
NUMBER_OF_BYTES : 7732933779
_STATISTICS_WRITING_APP : mkvmerge v7.1.0 ('Good Love') 64bit built on Jul 27 2014 13:06:55
_STATISTICS_WRITING_DATE_UTC : 2015-06-25 16:50:41
_STATISTICS_TAGS : BPS DURATION NUMBER_OF_FRAMES NUMBER_OF_BYTES
Audio #1
ID : 2
Format : AC-3
Format/Info : Audio Coding 3
Mode extension : CM (complete main)
Format settings, Endianness : Big
Codec ID : A_AC3
Duration : 1h 35mn
Bit rate mode : Constant
Bit rate : 192 Kbps
Channel(s) : 2 channels
Channel positions : Front: L R
Sampling rate : 44.1 KHz
Bit depth : 16 bits
Compression mode : Lossy
Stream size : 131 MiB (2%)
Language : Russian
Default : Yes
Forced : No
Audio #2
ID : 3
Format : DTS
Format/Info : Digital Theater Systems
Mode : 16
Format settings, Endianness : Big
Codec ID : A_DTS
Duration : 1h 35mn
Bit rate mode : Constant
Bit rate : 768 Kbps
Channel(s) : 6 channels
Channel positions : Front: L C R, Side: L R, LFE
Sampling rate : 48.0 KHz
Bit depth : 24 bits
Compression mode : Lossy
Stream size : 524 MiB (7%)
Language : English
Default : No
Forced : No
Text #1
ID : 4
Format : UTF-8
Codec ID : S_TEXT/UTF8
Codec ID/Info : UTF-8 Plain Text
Language : Russian
Default : No
Forced : No
Text #2
ID : 5
Format : UTF-8
Codec ID : S_TEXT/UTF8
Codec ID/Info : UTF-8 Plain Text
Language : English
Default : No
Forced : No
Menu
00:00:00.000 : en:00:00:00.000
00:08:18.081 : en:00:08:18.081
00:15:24.590 : en:00:15:24.590
00:22:36.897 : en:00:22:36.897
00:31:19.377 : en:00:31:19.377
00:37:51.311 : en:00:37:51.311
00:45:47.870 : en:00:45:47.870
00:52:39.239 : en:00:52:39.239
01:01:47.454 : en:01:01:47.454
01:07:24.749 : en:01:07:24.749
01:15:55.426 : en:01:15:55.426
01:25:00.679 : en:01:25:00.679
Скриншоты
Скачать

Скачать торрент!

Как скачивать? · Что такое торрент? · Рейтинг и ограничения

Сайт не распространяет и не хранит электронные версии произведений, а лишь предоставляет доступ к создаваемому пользователями каталогу ссылок на торрент-файлы, которые содержат только списки хеш-сумм

[Профиль] [ЛС]
Показать сообщения:    
Ответить на тему

Текущее время: Сегодня 00:11

Часовой пояс: GMT + 4



Вы не можете начинать темы
Вы не можете отвечать на сообщения
Вы не можете редактировать свои сообщения
Вы не можете удалять свои сообщения
Вы не можете голосовать в опросах
Вы не можете прикреплять файлы к сообщениям
Вы не можете скачивать файлы