Человеческая многоножка 3 / The Human Centipede 3 (Final Sequence) (Том Сикс / Tom Six) [2015, США, ужасы, триллер, драма, WEB-DLRip] DVO

Ответить на тему
 
Автор Сообщение

user ®

Стаж: 7 лет 7 месяцев

Сообщений: 20008

Пост Пост: #1 от 25-Июн-2015 20:15

[Цитировать]

Человеческая многоножка 3 / The Human Centipede 3 (Final Sequence)
Страна: США
Жанр: ужасы, триллер, драма
Год выпуска: 2015
Продолжительность: 01:42:40
Перевод: Любительский (двухголосый закадровый) - den904 и DeadSno
Cубтитры: нет
Режиссер: Том Сикс / Tom Six
В ролях: Бри Олсон, Эрик Робертс, Том Сикс, Роберт ЛаСардо, Том 'Тайни' Листер мл., Дитер Лазер, Лоуренс Р. Харви, Карлос Рамирез, Клэйтон Ронер, Джей Таваре
Описание: Надзиратель беспокойной тюрьмы, у которого не получается заслужить уважение заключенных и губернатора штата, решается на внедрение революционного наказания, способного не только навести порядок в тюремной системе, но и сэкономить миллионы долларов, — в буквальном смысле поставить заключенных на колени, сшив их в гигантскую многоножку из 500 человек.
Сэмпл: http://sendfile.su/1131475
Качество видео: WEB-DLRip
Формат видео: AVI
Видео: 1 634 Kbps, 720*304(2.35:1), at 24.000 fps, MPEG-4 Visual (XviD)
Аудио: 192 Kbps, 48.0 KHz, 16 bits, 2 channels, AC-3
MediaInfo
General
Complete name : D:\The.Human.Centipede.3.2015.WEB-DLRip.avi
Format : AVI
Format/Info : Audio Video Interleave
File size : 1.46 GiB
Duration : 1h 42mn
Overall bit rate : 2 032 Kbps
Writing application : VirtualDubMod 1.5.10.3 | www.virtualdub-fr.org || (build 2550/release)
Writing library : VirtualDubMod build 2550/release
Video
ID : 0
Format : MPEG-4 Visual
Format profile : Advanced Simple@L5
Format settings, BVOP : 1
Format settings, QPel : No
Format settings, GMC : No warppoints
Format settings, Matrix : Custom
Codec ID : XVID
Codec ID/Hint : XviD
Duration : 1h 42mn
Bit rate : 1 634 Kbps
Width : 720 pixels
Height : 304 pixels
Display aspect ratio : 2.35:1
Frame rate : 24.000 fps
Color space : YUV
Chroma subsampling : 4:2:0
Bit depth : 8 bits
Scan type : Progressive
Compression mode : Lossy
Bits/(Pixel*Frame) : 0.311
Stream size : 1.17 GiB (80%)
Writing library : XviD 73
Audio #1
ID : 1
Format : AC-3
Format/Info : Audio Coding 3
Mode extension : CM (complete main)
Format settings, Endianness : Big
Codec ID : 2000
Duration : 1h 42mn
Bit rate mode : Constant
Bit rate : 192 Kbps
Channel(s) : 2 channels
Channel positions : Front: L R
Sampling rate : 48.0 KHz
Bit depth : 16 bits
Compression mode : Lossy
Stream size : 141 MiB (9%)
Alignment : Split accross interleaves
Interleave, duration : 42 ms (1.00 video frame)
Interleave, preload duration : 500 ms
Audio #2
ID : 2
Format : AC-3
Format/Info : Audio Coding 3
Mode extension : CM (complete main)
Format settings, Endianness : Big
Codec ID : 2000
Duration : 1h 42mn
Bit rate mode : Constant
Bit rate : 192 Kbps
Channel(s) : 2 channels
Channel positions : Front: L R
Sampling rate : 48.0 KHz
Bit depth : 16 bits
Compression mode : Lossy
Stream size : 141 MiB (9%)
Alignment : Split accross interleaves
Interleave, duration : 42 ms (1.00 video frame)
Interleave, preload duration : 500 ms
Скриншот c названием фильма Скриншоты
Скачать

Скачать торрент!

Как скачивать? · Что такое торрент? · Рейтинг и ограничения

Сайт не распространяет и не хранит электронные версии произведений, а лишь предоставляет доступ к создаваемому пользователями каталогу ссылок на торрент-файлы, которые содержат только списки хеш-сумм

[Профиль] [ЛС]
Показать сообщения:    
Ответить на тему

Текущее время: Сегодня 21:19

Часовой пояс: GMT + 4



Вы не можете начинать темы
Вы не можете отвечать на сообщения
Вы не можете редактировать свои сообщения
Вы не можете удалять свои сообщения
Вы не можете голосовать в опросах
Вы не можете прикреплять файлы к сообщениям
Вы не можете скачивать файлы