Добро пожаловать ко мне / Welcome to Me (Шира Пивен / Shira Piven) [2014, США, драма, комедия, BDRip 720p] VO (А. Глинский) + Sub Eng + Original Eng

Ответить на тему
 
Автор Сообщение

user ®

Стаж: 7 лет 7 месяцев

Сообщений: 20008

Пост Пост: #1 от 25-Июн-2015 17:09

[Цитировать]

Добро пожаловать ко мне / Welcome to Me
Страна: США
Студия: Bron Studios / Gary Sanchez Productions
Жанр: драма, комедия
Год выпуска: 2014
Продолжительность: 01:27:19
Перевод: Одноголосый закадровый А. Глинский
Cубтитры: английские
Оригинальная аудиодорожка: английский
Режиссер: Шира Пивен / Shira Piven
В ролях: Кристен Уиг, Уэс Бентли, Линда Карделлини, Джоан Кьюсак, Лоретта Дивайн, Дженнифер Джейсон Ли, Томас Манн, Джеймс Марсден, Тим Роббинс, Алан Тьюдик
Описание: Сюжет расскажет о женщине с диссоциативным расстройством личности, которая выигрывает в лотерею и решает потратить все свои деньги на собственное телешоу, рассказывающее о ее жизни.

Сэмпл: http://multi-up.com/1055296
Тип релиза: BDRip 720p
Контейнер: MKV
Видео: MPEG4 Video (H264) 1280x720 23.976fps 7465 kbps
Аудио: Russian AC-3 / 2 ch / 48.0 KHz / 192 Kbps
Аудио 2: English AC-3 / 6 ch / 48.0 KHz / 640 Kbps
Аудио 3: English AAC / 2 ch / 48.0 KHz / 96 kbps / Commentary
Формат субтитров: softsub (SRT)

MediaInfo
General
Unique ID : 241401801547706097201538280958931196789 (0xB59C4BBB0DF3F4259E1292DBE4975B75)
Complete name : C:\Users\Вика\Desktop\Welcome.to.Me.2014.720p.BDRip.mkv
Format : Matroska
Format version : Version 4 / Version 2
File size : 5.12 GiB
Duration : 1h 27mn
Overall bit rate : 8 396 Kbps
Encoded date : UTC 2015-06-23 10:54:49
Writing application : mkvmerge v7.4.0 ('Circles') 64bit built on Dec 12 2014 12:19:56
Writing library : libebml v1.3.0 + libmatroska v1.4.1
_STATISTICS_WRITING_APP : mkvmerge v7.4.0 ('Circles') 64bit built on Dec 12 2014 12:19:56
_STATISTICS_WRITING_DATE_UTC : 2015-06-23 10:54:49
_STATISTICS_TAGS : BPS DURATION NUMBER_OF_FRAMES NUMBER_OF_BYTES
DURATION : 01:19:56.416000000
NUMBER_OF_FRAMES : 1192
NUMBER_OF_BYTES : 46142
Video
ID : 1
Format : AVC
Format/Info : Advanced Video Codec
Format profile : High@L4.1
Format settings, CABAC : Yes
Format settings, ReFrames : 9 frames
Codec ID : V_MPEG4/ISO/AVC
Duration : 1h 27mn
Width : 1 280 pixels
Height : 720 pixels
Display aspect ratio : 16:9
Frame rate mode : Constant
Frame rate : 23.976 fps
Color space : YUV
Chroma subsampling : 4:2:0
Bit depth : 8 bits
Scan type : Progressive
Writing library : x264 core 146 r2538 121396c
Encoding settings : cabac=1 / ref=9 / deblock=1:-3:-3 / analyse=0x3:0x133 / me=umh / subme=10 / psy=1 / psy_rd=1.03:0.00 / mixed_ref=1 / me_range=32 / chroma_me=1 / trellis=2 / 8x8dct=1 / cqm=0 / deadzone=21,11 / fast_pskip=0 / chroma_qp_offset=-2 / threads=6 / lookahead_threads=1 / sliced_threads=0 / nr=0 / decimate=0 / interlaced=0 / bluray_compat=0 / constrained_intra=0 / bframes=8 / b_pyramid=2 / b_adapt=2 / b_bias=0 / direct=3 / weightb=1 / open_gop=0 / weightp=2 / keyint=250 / keyint_min=24 / scenecut=40 / intra_refresh=0 / rc_lookahead=60 / rc=crf / mbtree=0 / crf=15.9 / qcomp=0.68 / qpmin=0 / qpmax=69 / qpstep=4 / vbv_maxrate=62500 / vbv_bufsize=78125 / crf_max=0.0 / nal_hrd=none / filler=0 / ip_ratio=1.30 / pb_ratio=1.20 / aq=3:0.67
Language : English
Default : Yes
Forced : No
_STATISTICS_WRITING_APP : mkvmerge v7.4.0 ('Circles') 64bit built on Dec 12 2014 12:19:56
_STATISTICS_WRITING_DATE_UTC : 2015-06-23 10:54:49
_STATISTICS_TAGS : BPS DURATION NUMBER_OF_FRAMES NUMBER_OF_BYTES
DURATION : 01:27:19.485000000
NUMBER_OF_FRAMES : 125622
NUMBER_OF_BYTES : 4889093355
Audio #1
ID : 2
Format : AC-3
Format/Info : Audio Coding 3
Mode extension : CM (complete main)
Format settings, Endianness : Big
Codec ID : A_AC3
Duration : 1h 27mn
Bit rate mode : Constant
Bit rate : 192 Kbps
Channel(s) : 2 channels
Channel positions : Front: L R
Sampling rate : 48.0 KHz
Bit depth : 16 bits
Compression mode : Lossy
Stream size : 120 MiB (2%)
Title : VO (А. Глинский)
Language : Russian
Default : Yes
Forced : No
Audio #2
ID : 3
Format : AC-3
Format/Info : Audio Coding 3
Mode extension : CM (complete main)
Format settings, Endianness : Big
Codec ID : A_AC3
Duration : 1h 27mn
Bit rate mode : Constant
Bit rate : 640 Kbps
Channel(s) : 6 channels
Channel positions : Front: L C R, Side: L R, LFE
Sampling rate : 48.0 KHz
Bit depth : 16 bits
Compression mode : Lossy
Stream size : 400 MiB (8%)
Language : English
Default : No
Forced : No
Audio #3
ID : 4
Format : AAC
Format/Info : Advanced Audio Codec
Format profile : LC
Codec ID : A_AAC
Duration : 1h 27mn
Channel(s) : 2 channels
Channel positions : Front: L R
Sampling rate : 48.0 KHz
Compression mode : Lossy
Delay relative to video : 9ms
Title : Commentary
Language : English
Default : No
Forced : No
Text
ID : 5
Format : UTF-8
Codec ID : S_TEXT/UTF8
Codec ID/Info : UTF-8 Plain Text
Title : SDH
Language : English
Default : No
Forced : No
Menu #1
00:00:00.000 : en:00:00:00.000
00:06:58.209 : en:00:06:58.209
00:14:35.833 : en:00:14:35.833
00:23:21.066 : en:00:23:21.066
00:29:39.069 : en:00:29:39.069
00:38:05.867 : en:00:38:05.867
00:45:02.283 : en:00:45:02.283
00:52:50.417 : en:00:52:50.417
01:00:18.949 : en:01:00:18.949
01:07:46.354 : en:01:07:46.354
01:12:26.968 : en:01:12:26.968
01:22:33.532 : en:01:22:33.532
Menu #2
00:00:00.054 : en:00:00:00.054
Скриншоты
Скачать

Скачать торрент!

Как скачивать? · Что такое торрент? · Рейтинг и ограничения

Сайт не распространяет и не хранит электронные версии произведений, а лишь предоставляет доступ к создаваемому пользователями каталогу ссылок на торрент-файлы, которые содержат только списки хеш-сумм

[Профиль] [ЛС]
Показать сообщения:    
Ответить на тему

Текущее время: Сегодня 07:54

Часовой пояс: GMT + 4



Вы не можете начинать темы
Вы не можете отвечать на сообщения
Вы не можете редактировать свои сообщения
Вы не можете удалять свои сообщения
Вы не можете голосовать в опросах
Вы не можете прикреплять файлы к сообщениям
Вы не можете скачивать файлы