Маленькие негодяи / The Little Rascals (Пенелопа Сфирис / Penelope Spheeris) [1994, США, мелодрама, комедия, семейный, BDRip 720p] MVO (Премьер Видео) + DVO (НТВ+) + 2x AVO (Володарский, Визгунов) + DVO (Ukr) + Sub Eng + Original Eng

Ответить на тему
 
Автор Сообщение

user ®

Стаж: 7 лет 7 месяцев

Сообщений: 20008

Пост Пост: #1 от 24-Июн-2015 22:36

[Цитировать]

Маленькие негодяи / The Little Rascals
Страна: США
Студия: Amblin Entertainment
Жанр: мелодрама, комедия, семейный
Год выпуска: 1994
Продолжительность: 01:22:27
Перевод 1: Профессиональный (многоголосый закадровый) Премьер Видео
Перевод 2: Профессиональный (двухголосый закадровый) НТВ+
Перевод 3: Авторский (одноголосый закадровый) Леонид Володарский
Перевод 4: Авторский (одноголосый закадровый) Сергей Визгунов
Перевод 5: Профессиональный (двухголосый закадровый) Украинский
Cубтитры: английские, английские SDH
Оригинальная аудиодорожка: английский
Режиссер: Пенелопа Сфирис / Penelope Spheeris
В ролях: Баг Хoлл, Бриттани Эштон Холмс, Трэвис Тедфорд, Кевин Джамал Вудс, Джордан Уоркол, Закари Мабри, Росс Бэгли, Кортлэнд Мид, Сэм Салитта, Блэйк Джереми Коллинз, Блэйк МакАйвер Ивинг, Мел Брукс, Вупи Голдберг, Дэрил Ханна, Реба МакИнтайр, Леа Томпсон, Доналд Трамп
Описание: Большинство героев этой картины – дети. Мальчики организовали свой клуб настоящих мужчин-женоненавистников. Поэтому любой, кто встречается с девочкой, в их глазах – преступник, предатель и негодяй.
Они очень сурово обошлись с одним из членов своего клуба только потому, что тот ходил к девочке на свидания. Девочки, в свою очередь, ничего хорошего в мальчиках тоже найти не могут и предают их суровому осуждению.
Доп. информация:

Релиз от:
Украинскую дорогу с чистого голоса сделал ilgizik01
Рип от CtrlHD! Источник: The Little Rascals 1994 1080p Blu-ray AVC DTS-HD MA 5.0-LAZERS
Сэмпл: http://multi-up.com/1055120
Тип релиза: BDRip 720p
Контейнер: MKV
Видео: AVC, 1280x694 (16:9), 23.976 fps, 11.4 Mbps (0.533 bit/pixel)
Аудио 1: RUS / MVO, AC-3 Dolby Digital, 48.0 KHz, 2 ch, 192 Kbps
Аудио 2: RUS / DVO, AC-3 Dolby Digital, 48.0 KHz, 2 ch, 192 Kbps
Аудио 3: RUS / AVO, AC-3 Dolby Digital, 48.0 KHz, 2 ch, 192 Kbps
Аудио 4: RUS / AVO, AC-3 Dolby Digital, 48.0 KHz, 2 ch, 192 Kbps
Аудио 5: UKR / DVO, DTS, 48.0 KHz, 5 ch, 1 510 Kbps
Аудио 6: ENG, DTS, 48.0 KHz, 5 ch, 1 510 Kbps
Формат субтитров: softsub (SRT)
MediaInfo
Format : Matroska
Format version : Version 4 / Version 2
File size : 8.90 GiB
Duration : 1h 22mn
Overall bit rate : 15.5 Mbps
Movie name : Маленькие негодяи / The Little Rascals (1994)
Encoded date : UTC 2015-06-20 08:58:33
Writing application : mkvmerge v7.9.0 ('Birds') 32bit
Writing library : libebml v1.3.1 + libmatroska v1.4.2
Attachements : cover.jpg
DURATION : 01:22:27.968000000
NUMBER_OF_FRAMES : 463872
NUMBER_OF_BYTES : 933310464
_STATISTICS_WRITING_APP : mkvmerge v7.9.0 ('Birds') 32bit
_STATISTICS_WRITING_DATE_UT : 2015-06-20 08:58:33
_STATISTICS_TAGS : BPS DURATION NUMBER_OF_FRAMES NUMBER_OF_BYTES
Video
ID : 1
Format : AVC
Format/Info : Advanced Video Codec
Format profile : High@L4.1
Format settings, CABAC : Yes
Format settings, ReFrames : 9 frames
Codec ID : V_MPEG4/ISO/AVC
Duration : 1h 22mn
Bit rate : 11.4 Mbps
Width : 1 280 pixels
Height : 694 pixels
Display aspect ratio : 1.85:1
Frame rate mode : Constant
Frame rate : 23.976 fps
Color space : YUV
Chroma subsampling : 4:2:0
Bit depth : 8 bits
Scan type : Progressive
Bits/(Pixel*Frame) : 0.533
Stream size : 6.54 GiB (74%)
Title : Рип от CtrlHD!
Writing library : x264 core 142 r2479kMod dd79a61
Encoding settings : cabac=1 / ref=9 / deblock=1:-3:-3 / analyse=0x3:0x133 / me=umh / subme=10 / psy=1 / fade_compensate=0.00 / psy_rd=1.10:0.00 / mixed_ref=1 / me_range=16 / chroma_me=1 / trellis=2 / 8x8dct=1 / cqm=0 / deadzone=21,11 / fast_pskip=0 / chroma_qp_offset=-2 / threads=6 / lookahead_threads=1 / sliced_threads=0 / nr=0 / decimate=0 / interlaced=0 / bluray_compat=0 / constrained_intra=0 / fgo=0 / bframes=8 / b_pyramid=2 / b_adapt=2 / b_bias=0 / direct=3 / weightb=1 / open_gop=0 / weightp=2 / keyint=250 / keyint_min=23 / scenecut=40 / intra_refresh=0 / rc_lookahead=60 / rc=crf / mbtree=0 / crf=18.0000 / qcomp=0.70 / qpmin=0 / qpmax=69 / qpstep=4 / vbv_maxrate=50000 / vbv_bufsize=62500 / crf_max=0.0 / nal_hrd=none / filler=0 / ip_ratio=1.30 / pb_ratio=1.20 / aq=1:0.60
Language : English
Default : Yes
Forced : No
DURATION : 01:22:27.902000000
NUMBER_OF_FRAMES : 118631
NUMBER_OF_BYTES : 7214802509
_STATISTICS_WRITING_APP : mkvmerge v7.9.0 ('Birds') 32bit
_STATISTICS_WRITING_DATE_UT : 2015-06-20 08:58:33
_STATISTICS_TAGS : BPS DURATION NUMBER_OF_FRAMES NUMBER_OF_BYTES
Audio #1
ID : 2
Format : AC-3
Format/Info : Audio Coding 3
Format profile : Dolby Digital
Mode extension : CM (complete main)
Format settings, Endianness : Big
Codec ID : A_AC3
Duration : 1h 22mn
Bit rate mode : Constant
Bit rate : 192 Kbps
Channel(s) : 2 channels
Channel positions : Front: L R
Sampling rate : 48.0 KHz
Compression mode : Lossy
Stream size : 113 MiB (1%)
Title : MVO (Премьер Видео)
Language : Russian
Default : Yes
Forced : No
Audio #2
ID : 3
Format : AC-3
Format/Info : Audio Coding 3
Format profile : Dolby Digital
Mode extension : CM (complete main)
Format settings, Endianness : Big
Codec ID : A_AC3
Duration : 1h 22mn
Bit rate mode : Constant
Bit rate : 192 Kbps
Channel(s) : 2 channels
Channel positions : Front: L R
Sampling rate : 48.0 KHz
Compression mode : Lossy
Stream size : 113 MiB (1%)
Title : DVO (НТВ+)
Language : Russian
Default : No
Forced : No
Audio #3
ID : 4
Format : AC-3
Format/Info : Audio Coding 3
Format profile : Dolby Digital
Mode extension : CM (complete main)
Format settings, Endianness : Big
Codec ID : A_AC3
Duration : 1h 22mn
Bit rate mode : Constant
Bit rate : 192 Kbps
Channel(s) : 2 channels
Channel positions : Front: L R
Sampling rate : 48.0 KHz
Compression mode : Lossy
Stream size : 113 MiB (1%)
Title : AVO (Леонид Володарский)
Language : Russian
Default : No
Forced : No
Audio #4
ID : 5
Format : AC-3
Format/Info : Audio Coding 3
Format profile : Dolby Digital
Mode extension : CM (complete main)
Format settings, Endianness : Big
Codec ID : A_AC3
Duration : 1h 22mn
Bit rate mode : Constant
Bit rate : 192 Kbps
Channel(s) : 2 channels
Channel positions : Front: L R
Sampling rate : 48.0 KHz
Compression mode : Lossy
Stream size : 113 MiB (1%)
Title : AVO (Сергей Визгунов)
Language : Russian
Default : No
Forced : No
Audio #5
ID : 6
Format : DTS
Format/Info : Digital Theater Systems
Mode : 16
Format settings, Endianness : Big
Codec ID : A_DTS
Duration : 1h 22mn
Bit rate mode : Constant
Bit rate : 1 509 Kbps
Channel(s) : 5 channels
Channel positions : Front: L C R, Side: L R
Sampling rate : 48.0 KHz
Bit depth : 24 bits
Compression mode : Lossy
Stream size : 890 MiB (10%)
Title : DVO
Language : Ukrainian
Default : No
Forced : No
Audio #6
ID : 7
Format : DTS
Format/Info : Digital Theater Systems
Mode : 16
Format settings, Endianness : Big
Codec ID : A_DTS
Duration : 1h 22mn
Bit rate mode : Constant
Bit rate : 1 509 Kbps
Channel(s) : 5 channels
Channel positions : Front: L C R, Side: L R
Sampling rate : 48.0 KHz
Bit depth : 24 bits
Compression mode : Lossy
Stream size : 890 MiB (10%)
Language : English
Default : No
Forced : No
Text #1
ID : 8
Format : UTF-8
Codec ID : S_TEXT/UTF8
Codec ID/Info : UTF-8 Plain Text
Language : English
Default : No
Forced : No
Text #2
ID : 9
Format : UTF-8
Codec ID : S_TEXT/UTF8
Codec ID/Info : UTF-8 Plain Text
Title : SDH
Language : English
Default : No
Forced : No
Menu
00:00:00.000 : en:Main Titles: An Emergency Meeting
00:04:38.695 : en:The He-man Womun Haters Club
00:08:00.522 : en:The Great Lover
00:11:11.546 : en:The Bullies, The Beast And The Boyfriend
00:12:43.137 : en:The Rich Kid
00:14:25.406 : en:Messing Up The Mid-day Meal
00:18:04.750 : en:Cornered At The Clubhouse
00:19:15.654 : en:Fire!
00:21:43.260 : en:Burned and Spurned
00:24:28.801 : en:Alfalfa On The Edge
00:26:30.339 : en:Boy's And Girl's
00:28:05.601 : en:A Big Number For A Little Number
00:29:01.198 : en:The loan Arrangers
00:30:55.145 : en:A Love Note To Darla
00:34:28.400 : en:A Buck And A Duck
00:35:54.027 : en:The Bullies And The Ballerinas
00:39:09.097 : en:Toads Among The Tutus
00:41:21.020 : en:Out There In His Underwear
00:43:33.694 : en:The Outer Side Of Alfalfa
00:44:21.951 : en:A Pickel For A Nickel
00:45:04.869 : en:Believe It Or Else!
00:46:59.191 : en:Skunked!
00:48:19.271 : en:All That Money...
00:49:42.146 : en:"l-o-v-e" (waldo And Darla)
00:51:10.526 : en:Butch Takes The Blur
00:52:32.191 : en:Subgug Through Suds
00:54:27.306 : en:The Ex-woman Hater
00:55:33.121 : en:Making Up
00:58:04.773 : en:Working Together
00:59:01.872 : en:Building A Better Hut
01:00:45.141 : en:The Go-cart Derby
01:04:20.482 : en:Start Your Engines
01:06:02.041 : en:No Sense Of Direction
01:07:05.772 : en:Rascals At Warp Speed
01:08:07.125 : en:Yikes! Spikes!
01:09:04.265 : en:Things Flare up
01:10:08.246 : en:Winner By A Hair
01:11:12.059 : en:The Lover Becomes A Fighter
01:12:59.292 : en:The Winners!
01:14:11.906 : en:Things Have To Change Sometime
01:16:28.959 : en:The Cast Of Characters
01:18:44.094 : en:End Titles
Скриншоты
Скачать

Скачать торрент!

Как скачивать? · Что такое торрент? · Рейтинг и ограничения

Сайт не распространяет и не хранит электронные версии произведений, а лишь предоставляет доступ к создаваемому пользователями каталогу ссылок на торрент-файлы, которые содержат только списки хеш-сумм

[Профиль] [ЛС]
Показать сообщения:    
Ответить на тему

Текущее время: Сегодня 19:39

Часовой пояс: GMT + 4



Вы не можете начинать темы
Вы не можете отвечать на сообщения
Вы не можете редактировать свои сообщения
Вы не можете удалять свои сообщения
Вы не можете голосовать в опросах
Вы не можете прикреплять файлы к сообщениям
Вы не можете скачивать файлы