Битва за Нанкин, Шанхай и Хэнчжоу / Zhongguo san huan yin xiang she / Fight for Nanjing, Shanghai and Hangzhou (Лиан Вэй / Lian Wei) [1999, Китай, военный, исторический, драма, DVDRip] VO (Хоррор Мейкер)

Ответить на тему
 
Автор Сообщение

user ®

Стаж: 13 лет

Сообщений: 15071

Пост Пост: #1 от 24-Июн-2015 19:30

[Цитировать]

Битва за Нанкин, Шанхай и Хэнчжоу / Zhongguo san huan yin xiang she / Fight for Nanjing, Shanghai and Hangzhou Страна: Китай
Жанр: Военный, исторический, драма
Год выпуска: 1999
Продолжительность: 01:54:15
Перевод: Одноголосый закадровый Хоррор Мейкер
Cубтитры: нет
Оригинальная аудиодорожка: нет
Режиссер: Лиан Вэй / Lian Wei
В ролях: Лю Ши, Гу Юэ, Лю Си Тянь, Фу Сюэ Чен, Сунь Вэй Мин, Се Вэй Цай, Сяо Сюн, Цзян Чан Йи, Ши Вэй Лу Ши, Гу Юэ, Лю Си Тянь, Фу Сюэ Чен, Сунь Вэй Мин, Се Вэй Цай, Сяо Сюн, Цзян Чан Йи, Ши Вэй
Описание: В апреле 1949 года руководство китайских коммунистов направило Нанкинскому правительству Гоминьдана условия мирного соглашения. После того, как до 20 апреля ответа на них не последовало, войска трёх полевых армий перешли в наступление и приступили к форсированию Янцзы. За одни сутки под артиллерийским и миномётным огнём, под ударами с воздуха на южный берег широчайшей реки Китая было переброшено 830 тысяч бойцов с вооружением, боезапасом и снаряжением. 23 апреля 1949 года Ли Цзунжэнь и Хэ Инцинь оставили Нанкин и вылетели в Гуанчжоу, а Чан Кайши вылетел на Тайвань...
Сэмпл: http://multi-up.com/1055240
Качество видео: DVDRip
[url=http://***/forum/viewtopic.php?t=5023939]Исходник[/url]
Формат видео: AVI
Видео: XviD, 704x416 (1.69:1), 25.000 fps, 1606 kbps avg
Аудио: Russian AC3 Dolby Digital, 48 kHz, 2/0 (L,R) ch, 192.00 kbps avg
MediaInfo
General
Complete name : E:\Fight for Nanjing, Shanghai and Hangzhou_199\Great battle in Ning Hu Hang_1999.DVDRip.VO.avi
Format : AVI
Format/Info : Audio Video Interleave
File size : 1.44 GiB
Duration : 1h 54mn
Overall bit rate : 1 808 Kbps
Writing application : VirtualDubMod 1.5.10.3 | www.virtualdub-fr.org || (build 2550/release)
Writing library : VirtualDubMod build 2550/release
Video
ID : 0
Format : MPEG-4 Visual
Format profile : Advanced Simple@L5
Format settings, BVOP : 1
Format settings, QPel : No
Format settings, GMC : No warppoints
Format settings, Matrix : Default (MPEG)
Codec ID : XVID
Codec ID/Hint : XviD
Duration : 1h 54mn
Bit rate : 1 606 Kbps
Width : 704 pixels
Height : 416 pixels
Display aspect ratio : 1.69:1
Frame rate : 25.000 fps
Color space : YUV
Chroma subsampling : 4:2:0
Bit depth : 8 bits
Scan type : Progressive
Compression mode : Lossy
Bits/(Pixel*Frame) : 0.219
Stream size : 1.28 GiB (89%)
Writing library : XviD 73
Audio
ID : 1
Format : AC-3
Format/Info : Audio Coding 3
Mode extension : CM (complete main)
Format settings, Endianness : Big
Codec ID : 2000
Duration : 1h 54mn
Bit rate mode : Constant
Bit rate : 192 Kbps
Channel(s) : 2 channels
Channel positions : Front: L R
Sampling rate : 48.0 KHz
Compression mode : Lossy
Stream size : 157 MiB (11%)
Alignment : Split accross interleaves
Interleave, duration : 40 ms (1.00 video frame)
Interleave, preload duratio : 500 ms
Скриншоты
Скачать

Скачать торрент! Битва за Нанкин, Шанхай и Хэнчжоу / Zhongguo san huan yin xiang she / Fight for Nanjing, Shanghai and Hangzhou (Лиан Вэй / Lian Wei) [1999, Китай, военный, исторический, драма, DVDRip] VO (Хоррор Мейкер)

Как скачивать? · Что такое торрент? · Рейтинг и ограничения

Сайт не распространяет и не хранит электронные версии произведений, а лишь предоставляет доступ к создаваемому пользователями каталогу ссылок на торрент-файлы, которые содержат только списки хеш-сумм

[Профиль] [ЛС]

Armani222

Стаж: 7 лет

Сообщений: 7

Пост Пост: #2 от 30-Июн-2015 19:15 (спустя 5 дней)

[Цитировать]

Спасибо большое за раздачу!!)
[Профиль] [ЛС]
Показать сообщения:    
Ответить на тему

Текущее время: Сегодня 18:10

Часовой пояс: GMT + 4



Вы не можете начинать темы
Вы не можете отвечать на сообщения
Вы не можете редактировать свои сообщения
Вы не можете удалять свои сообщения
Вы не можете голосовать в опросах
Вы не можете прикреплять файлы к сообщениям
Вы не можете скачивать файлы