Мордекай / Mortdecai (Дэвид Кепп / David Koepp) [2015, Великобритания, США, боевик, мелодрама, комедия, детектив, BDRip-AVC] DVO

Ответить на тему
 
Автор Сообщение

user ®

Стаж: 7 лет 7 месяцев

Сообщений: 20008

Пост Пост: #1 от 24-Июн-2015 19:30

[Цитировать]

Мордекай / Mortdecai
Страна: Великобритания, США
Жанр: боевик, мелодрама, комедия, детектив
Год выпуска: 2015
Продолжительность: 01:46:43
Перевод: Любительский (двухголосый закадровый) Студия Пиратского Дубляжа
Cубтитры: нет
Оригинальная аудиодорожка: нет
Режиссер: Дэвид Кепп / David Koepp
В ролях: Джонни Депп, Гвинет Пэлтроу, Пол Беттани, Эван МакГрегор, Оливия Манн, Джефф Голдблюм, Джонатон Пасвольски, Майкл Калкин, Ульрих Томсен, Алек Утгофф, Роб де Гроот, Гай Бернет, Антти Хакала, Пол Уайтхаус, Норма Аталла, Николас Фэррел, Карл Теобалд, Камилла Бипут, Майкл Бирн, Эмили Лоуренс
Описание: В центре сюжета — история Чарльза Мордекая, обходительного арт-дельца и жулика по совместительству, который путешествует по всему миру и с помощью своего неотразимого обаяния пытается раздобыть украденную картину. По слухам, в этом произведении искусства содержится код доступа к банковской ячейке, наполненной нацистским золотом. По ходу Мордекаю приходится улаживать дела с недобрыми русскими, британской разведкой Mi5, международным террористом и со своей умопомрачительно длинноногой женой.


Качество видео: BDRip-AVC / Mortdecai.2015.1080p.BluRay.REMUX.AVC.DTS-HD.MA.7.1-RARBG
Формат видео: MKV
Видео: MPEG-4 AVC Video / 1 553 Кбит/сек / 960x400 / 23.976 / 2.40:1 / High Profile 4.1
Аудио: AC3 / Dolby Digital Audio / 5.1 / 48 kHz / 384 kbps |DVO|
FAQ по просмотру MKV/h.264/AAC
[url=http://***/forum/viewtopic.php?p=9255801#1]•Смогу ли я запустить AVC фильм на своём компьютере?[/url]
[url=http://***/forum/viewtopic.php?p=9255801#2]•Сампл из раздачи не воспроизводится/тормозит или отсутствует звук/изображение. Что делать?[/url]
[url=http://***/forum/viewtopic.php?p=9255801#3]•Что такое H.264/AVC и зачем он нужен?[/url]
[url=http://***/forum/viewtopic.php?p=9255801#4]•Что за дурацкий формат .MKV?[/url]
[url=http://***/forum/viewtopic.php?p=9255801#5]•Почему MKV? Чем AVI хуже?[/url]
[url=http://***/forum/viewtopic.php?p=9255801#6]•Не могу переключить/включить/выключить аудио/видео дорожки и/или субтитры. Что делать?[/url]
[url=http://***/forum/viewtopic.php?p=9255801#14]•Как сделать так, чтобы по умолчанию при просмотре MKV файлов нужные/ненужные субтитры были включены/выключены, и/или сразу проигрывалась дорожка на нужном мне языке?[/url]
[url=http://***/forum/viewtopic.php?p=9255801#7]•Будут ли фильмы в таком формате проигрываться на бытовых плеерах без компьютера?[/url]
[url=http://***/forum/viewtopic.php?p=9255801#8]•Проигрываю фильм, а картинка очень сильно отличается от скринов/бледная/перенасыщенная. Что не так?[/url]
[url=http://***/forum/viewtopic.php?p=9255801#9]•Можно ли сконвертировать AVC в DVD?[/url]
[url=http://***/forum/viewtopic.php?p=9255801#10]•Почему сплюснута картинка / в характеристиках видео указано два разрешения / что такое анаморфное разрешение?[/url]
[url=http://***/forum/viewtopic.php?p=9255801#169]•Зачем релизёры обманывают качающих и пишут в заголовке 720p/1080p, а на самом деле раздают видеоматериалы в непонятных разрешениях?[/url]
[url=http://***/forum/viewtopic.php?p=9255801#11]•Можно ли вывести многоканальный FLAC/AAC-звук на внешний ресивер?[/url]
[url=http://***/forum/viewtopic.php?p=9255801#12]•У меня 2-канальная акустика/стереонаушники. При просмотре видео почти не слышно/совсем не слышно речь/разговоры, играют только фоновые звуки. Что делать?[/url]
[url=http://***/forum/viewtopic.php?p=9255801#coreweightp]•У меня стоит CoreAVC версии 1.9.5 или младше. При воспроизведении картинка рассыпается на квадраты и разноцветные пятна. Кривой рип?[/url]
[url=http://***/forum/viewtopic.php?p=9255801#13]•Всё прочитал(-а), решения своей проблемы не нашёл(-шла)/не смог(-ла) разобраться. Что делать?[/url]
MediaInfo
General
Unique ID                                : 242703878312809906289888360298127479269 (0xB697111258099654B6E2923BE596D1E5)
Complete name                            : Mortdecai.2015.BDRip-AVC_[***].mkv
Format                                   : Matroska
Format version                           : Version 4 / Version 2
File size                                : 1.44 GiB
Duration                                 : 1h 46mn
Overall bit rate                         : 1 938 Kbps
Movie name                               : Mortdecai.2015
Encoded date                             : UTC 2015-06-24 09:09:13
Writing application                      : mkvmerge v7.9.0 ('Birds') 64bit
Writing library                          : libebml v1.3.1 + libmatroska v1.4.2
DURATION                                 : 01:46:42.720000000
NUMBER_OF_FRAMES                         : 200085
NUMBER_OF_BYTES                          : 307330560
_STATISTICS_WRITING_APP                  : mkvmerge v7.9.0 ('Birds') 64bit
_STATISTICS_WRITING_DATE_UTC             : 2015-06-24 09:09:13
_STATISTICS_TAGS                         : BPS DURATION NUMBER_OF_FRAMES NUMBER_OF_BYTES
Attachment                               : Yes
Video
ID                                       : 1
Format                                   : AVC
Format/Info                              : Advanced Video Codec
Format profile                           : High@L4.1
Format settings, CABAC                   : Yes
Format settings, ReFrames                : 10 frames
Codec ID                                 : V_MPEG4/ISO/AVC
Duration                                 : 1h 46mn
Bit rate                                 : 1 553 Kbps
Width                                    : 960 pixels
Height                                   : 400 pixels
Display aspect ratio                     : 2.40:1
Frame rate mode                          : Constant
Frame rate                               : 23.976 fps
Color space                              : YUV
Chroma subsampling                       : 4:2:0
Bit depth                                : 8 bits
Scan type                                : Progressive
Bits/(Pixel*Frame)                       : 0.169
Stream size                              : 1.13 GiB (78%)
Title                                    : Mortdecai.2015.BDRip-AVC_[***]
Writing library                          : x264 core 146 r2538 121396c
Encoding settings                        : cabac=1 / ref=10 / deblock=1:-2:-1 / analyse=0x3:0x133 / me=umh / subme=11 / psy=1 / psy_rd=0.92:0.00 / mixed_ref=1 / me_range=38 / chroma_me=1 / trellis=2 / 8x8dct=1 / cqm=0 / deadzone=21,11 / fast_pskip=0 / chroma_qp_offset=-2 / threads=6 / lookahead_threads=1 / sliced_threads=0 / nr=0 / decimate=0 / interlaced=0 / bluray_compat=0 / constrained_intra=0 / bframes=16 / b_pyramid=2 / b_adapt=2 / b_bias=0 / direct=3 / weightb=1 / open_gop=0 / weightp=2 / keyint=240 / keyint_min=23 / scenecut=40 / intra_refresh=0 / rc_lookahead=60 / rc=2pass / mbtree=0 / bitrate=1553 / ratetol=1.0 / qcomp=0.60 / qpmin=0 / qpmax=69 / qpstep=4 / cplxblur=20.0 / qblur=0.5 / vbv_maxrate=50000 / vbv_bufsize=62500 / nal_hrd=none / filler=0 / ip_ratio=1.30 / pb_ratio=1.20 / aq=1:1.00
Language                                 : English
Default                                  : Yes
Forced                                   : No
Audio
ID                                       : 2
Format                                   : AC-3
Format/Info                              : Audio Coding 3
Mode extension                           : CM (complete main)
Format settings, Endianness              : Big
Codec ID                                 : A_AC3
Duration                                 : 1h 46mn
Bit rate mode                            : Constant
Bit rate                                 : 384 Kbps
Channel(s)                               : 6 channels
Channel positions                        : Front: L C R, Side: L R, LFE
Sampling rate                            : 48.0 KHz
Bit depth                                : 16 bits
Compression mode                         : Lossy
Stream size                              : 293 MiB (20%)
Title                                    : Любительский (двухголосый закадровый) Студия Пиратского Дубляжа
Language                                 : Russian
Default                                  : Yes
Forced                                   : No
Menu
00:00:00.000                             : en:00:00:00.000
00:05:04.179                             : en:00:05:04.179
00:11:31.232                             : en:00:11:31.232
00:18:52.548                             : en:00:18:52.548
00:24:04.151                             : en:00:24:04.151
00:29:49.496                             : en:00:29:49.496
00:36:55.797                             : en:00:36:55.797
00:42:51.611                             : en:00:42:51.611
00:50:03.375                             : en:00:50:03.375
00:56:39.688                             : en:00:56:39.688
01:03:47.699                             : en:01:03:47.699
01:10:07.244                             : en:01:10:07.244
01:18:45.304                             : en:01:18:45.304
01:24:56.424                             : en:01:24:56.424
01:28:58.083                             : en:01:28:58.083
01:33:49.248                             : en:01:33:49.248
Скриншоты
Скачать

Скачать торрент!

Как скачивать? · Что такое торрент? · Рейтинг и ограничения

Сайт не распространяет и не хранит электронные версии произведений, а лишь предоставляет доступ к создаваемому пользователями каталогу ссылок на торрент-файлы, которые содержат только списки хеш-сумм

[Профиль] [ЛС]
Показать сообщения:    
Ответить на тему

Текущее время: Сегодня 17:30

Часовой пояс: GMT + 4



Вы не можете начинать темы
Вы не можете отвечать на сообщения
Вы не можете редактировать свои сообщения
Вы не можете удалять свои сообщения
Вы не можете голосовать в опросах
Вы не можете прикреплять файлы к сообщениям
Вы не можете скачивать файлы