Дежа вю / Deja Vu (Тони Скотт / Tony Scott) [2006, США, Великобритания, фантастика, триллер, HDTV 1080i] [Open Matte] Dub + MVO + DVO + 2x AVO (Гаврилов, Рябов) + Dub (Ukr) + Orginal Eng + Sub Rus

Ответить на тему
 
Автор Сообщение

user ®

Стаж: 7 лет 7 месяцев

Сообщений: 20008

Пост Пост: #1 от 24-Июн-2015 16:24

[Цитировать]

Дежа вю / Deja Vu Страна: США, Великобритания
Студия: Touchstone Pictures, Jerry Bruckheimer Films, Scott Free
Жанр: фантастика, триллер
Год выпуска: 2006
Продолжительность: 02:01:21
Перевод 1: Профессиональный (полное дублирование) Русский
Перевод 2: Профессиональный (многоголосый закадровый) Киномания
Перевод 3: Профессиональный (двухголосый закадровый) Гланц и Королёва
Перевод 4: Авторский (одноголосый закадровый) Андрей Гаврилов
Перевод 5: Авторский (одноголосый закадровый) Сергей Рябов
Cубтитры: русские SRT
Оригинальная аудиодорожка: Английский
Режиссер: Тони Скотт / Tony Scott
В ролях: Дензел Вашингтон, Пола Пэттон, Вэл Килмер, Джеймс Кэвизел, Адам Голдберг, Элден Хенсон, Эрика Александр, Брюс Гринвуд, Рич Хатчмэн, Мэтт Крэвен
Описание: Каждый из нас хотя бы раз в жизни испытывал эффект дежа вю, когда нам вдруг начинает казаться, что мы знакомы с людьми, которых на самом деле раньше никогда не видели, и уже бывали в местах, где на самом деле никогда не были. И, возможно, в такие моменты кому-то приходила в голову мысль, что эти ощущения — не что иное, как предупреждения, посланные нам из прошлого, а может быть, и ключ к познанию будущего.
Агент АТФ Даг Карлин получает возможность совершать путешествия во времени, расследуя обстоятельства взрыва, произошедшего на новоорлеанском пароме. Оказавшись в прошлом, он встречает женщину, которую должны убить, и в итоге влюбляется в нее…

Качество видео: HDTV 1080i
Формат видео: MKV
Видео кодек: H264
Аудио кодек: AC3
Видео: 1920x1080 (1.78:1), 25 fps, ~8206 kbps avg, 0.158 bit/pixel
Аудио#1: 48 kHz, AC3 Dolby Digital, 3/2 (L,C,R,l,r) + LFE ch, ~640 kbps - Дубляж русский
Аудио#2: 48 kHz, AC3 Dolby Digital, 3/2 (L,C,R,l,r) + LFE ch, ~640 kbps - Киномания
Аудио#3: 48 kHz, AC3 Dolby Digital, 3/2 (L,C,R,l,r) + LFE ch, ~640 kbps - Гланц и Королёва
Аудио#4: 48 kHz, AC3 Dolby Digital, 3/2 (L,C,R,l,r) + LFE ch, ~640 kbps - Гаврилов
Аудио#5: 48 kHz, AC3 Dolby Digital, 3/2 (L,C,R,l,r) + LFE ch, ~640 kbps - Рябов
Аудио#6: 48 kHz, AC3 Dolby Digital, 2/0 (L,R) ch, ~192 kbps - Дубляж украинский
Аудио#7: 48 kHz, AC3 Dolby Digital, 3/2 (L,C,R,l,r) + LFE ch, ~640 kbps - Оригинал

Сравнение Доп.инфо
за видеоряд спасибо spartanec163
присутствуют послерекламные вставки с названием фильма.
MediaInfo
Полное имя : Дежа вю 2006 Open Matte HDTV1080i.mkv
Формат : Matroska
Версия формата : Version 4 / Version 2
Размер файла : 10,6 Гбайт
Продолжительность : 2 ч. 1 м.
Общий поток : 12,5 Мбит/сек
Дата кодирования : UTC 2015-06-21 21:34:56
Программа кодирования : mkvmerge v7.1.0 ('Good Love') 64bit built on Jul 27 2014 13:06:55
Библиотека кодирования : libebml v1.3.0 + libmatroska v1.4.1
DURATION : 01:52:18.310000000
NUMBER_OF_FRAMES : 1580
NUMBER_OF_BYTES : 84274
_STATISTICS_WRITING_APP : mkvmerge v7.1.0 ('Good Love') 64bit built on Jul 27 2014 13:06:55
_STATISTICS_WRITING_DATE_UTC : 2015-06-21 21:34:56
_STATISTICS_TAGS : BPS DURATION NUMBER_OF_FRAMES NUMBER_OF_BYTES
Видео
Идентификатор : 1
Формат : AVC
Формат/Информация : Advanced Video Codec
Профиль формата : High@L4.0
Параметр CABAC формата : Да
Параметр ReFrames формата : 4 кадра
Идентификатор кодека : V_MPEG4/ISO/AVC
Продолжительность : 2 ч. 1 м.
Битрейт : 8206 Кбит/сек
Ширина : 1920 пикселей
Высота : 1080 пикселей
Соотношение сторон : 16:9
Режим частоты кадров : Постоянный
Частота кадров : 25,000 кадров/сек
Стандарт вещания : Component
Цветовое пространство : YUV
Субдискретизация насыщенности : 4:2:0
Битовая глубина : 8 бит
Тип развёртки : Чересстрочная
Порядок развёртки : Верхнее поле первое
Бит/(Пиксели*Кадры) : 0.158
Размер потока : 6,96 Гбайт (66%)
Default : Да
Forced : Нет
Основные цвета : BT.709
Характеристики трансфера : BT.709
Коэффициенты матрицы : BT.709
Аудио #1
Идентификатор : 2
Формат : AC-3
Формат/Информация : Audio Coding 3
Расширение режима : CM (complete main)
Параметр Endianness формата : Big
Идентификатор кодека : A_AC3
Продолжительность : 2 ч. 1 м.
Вид битрейта : Постоянный
Битрейт : 640 Кбит/сек
Каналы : 6 каналов
Расположение каналов : Front: L C R, Side: L R, LFE
Частота : 48,0 КГц
Битовая глубина : 16 бит
Метод сжатия : С потерями
Размер потока : 556 Мбайт (5%)
Заголовок : Dub (Rus)
Язык : Russian
Default : Да
Forced : Нет
Аудио #2
Идентификатор : 3
Формат : AC-3
Формат/Информация : Audio Coding 3
Расширение режима : CM (complete main)
Параметр Endianness формата : Big
Идентификатор кодека : A_AC3
Продолжительность : 2 ч. 1 м.
Вид битрейта : Постоянный
Битрейт : 640 Кбит/сек
Каналы : 6 каналов
Расположение каналов : Front: L C R, Side: L R, LFE
Частота : 48,0 КГц
Битовая глубина : 16 бит
Метод сжатия : С потерями
Размер потока : 556 Мбайт (5%)
Заголовок : MVO (Kinomaniya)
Язык : Russian
Default : Нет
Forced : Нет
Аудио #3
Идентификатор : 4
Формат : AC-3
Формат/Информация : Audio Coding 3
Расширение режима : CM (complete main)
Параметр Endianness формата : Big
Идентификатор кодека : A_AC3
Продолжительность : 2 ч. 1 м.
Вид битрейта : Постоянный
Битрейт : 640 Кбит/сек
Каналы : 6 каналов
Расположение каналов : Front: L C R, Side: L R, LFE
Частота : 48,0 КГц
Битовая глубина : 16 бит
Метод сжатия : С потерями
Размер потока : 556 Мбайт (5%)
Заголовок : DVO (Glanc, Korolyeva)
Язык : Russian
Default : Нет
Forced : Нет
Аудио #4
Идентификатор : 5
Формат : AC-3
Формат/Информация : Audio Coding 3
Расширение режима : CM (complete main)
Параметр Endianness формата : Big
Идентификатор кодека : A_AC3
Продолжительность : 2 ч. 1 м.
Вид битрейта : Постоянный
Битрейт : 640 Кбит/сек
Каналы : 6 каналов
Расположение каналов : Front: L C R, Side: L R, LFE
Частота : 48,0 КГц
Битовая глубина : 16 бит
Метод сжатия : С потерями
Размер потока : 556 Мбайт (5%)
Заголовок : AVO (Gavrilov)
Язык : Russian
Default : Нет
Forced : Нет
Аудио #5
Идентификатор : 6
Формат : AC-3
Формат/Информация : Audio Coding 3
Расширение режима : CM (complete main)
Параметр Endianness формата : Big
Идентификатор кодека : A_AC3
Продолжительность : 2 ч. 1 м.
Вид битрейта : Постоянный
Битрейт : 640 Кбит/сек
Каналы : 6 каналов
Расположение каналов : Front: L C R, Side: L R, LFE
Частота : 48,0 КГц
Битовая глубина : 16 бит
Метод сжатия : С потерями
Размер потока : 556 Мбайт (5%)
Заголовок : AVO (Ryabov)
Язык : Russian
Default : Нет
Forced : Нет
Аудио #6
Идентификатор : 7
Формат : AC-3
Формат/Информация : Audio Coding 3
Расширение режима : CM (complete main)
Параметр Endianness формата : Big
Идентификатор кодека : A_AC3
Продолжительность : 2 ч. 1 м.
Вид битрейта : Постоянный
Битрейт : 192 Кбит/сек
Каналы : 2 канала
Расположение каналов : Front: L R
Частота : 48,0 КГц
Битовая глубина : 16 бит
Метод сжатия : С потерями
Размер потока : 167 Мбайт (2%)
Заголовок : Dub (Ukr)
Язык : Ukrainian
Default : Нет
Forced : Нет
Аудио #7
Идентификатор : 8
Формат : AC-3
Формат/Информация : Audio Coding 3
Расширение режима : CM (complete main)
Параметр Endianness формата : Big
Идентификатор кодека : A_AC3
Продолжительность : 2 ч. 1 м.
Вид битрейта : Постоянный
Битрейт : 640 Кбит/сек
Каналы : 6 каналов
Расположение каналов : Front: L C R, Side: L R, LFE
Частота : 48,0 КГц
Битовая глубина : 16 бит
Метод сжатия : С потерями
Размер потока : 556 Мбайт (5%)
Заголовок : Original
Язык : English
Default : Нет
Forced : Нет
Текст
Идентификатор : 9
Формат : UTF-8
Идентификатор кодека : S_TEXT/UTF8
Идентификатор кодека/Информация : UTF-8 Plain Text
Язык : Russian
Default : Нет
Forced : Нет
Скриншоты
Скачать

Скачать торрент!

Как скачивать? · Что такое торрент? · Рейтинг и ограничения

Сайт не распространяет и не хранит электронные версии произведений, а лишь предоставляет доступ к создаваемому пользователями каталогу ссылок на торрент-файлы, которые содержат только списки хеш-сумм

[Профиль] [ЛС]
Показать сообщения:    
Ответить на тему

Текущее время: Сегодня 02:04

Часовой пояс: GMT + 4



Вы не можете начинать темы
Вы не можете отвечать на сообщения
Вы не можете редактировать свои сообщения
Вы не можете удалять свои сообщения
Вы не можете голосовать в опросах
Вы не можете прикреплять файлы к сообщениям
Вы не можете скачивать файлы