Банкрот (Игорь Масленников) [2009, комедия, DVB]

Ответить на тему
 
Автор Сообщение

user ®

Стаж: 7 лет 7 месяцев

Сообщений: 20008

Пост Пост: #1 от 24-Июн-2015 16:24

[Цитировать]

Банкрот
Жанр: комедия
Год выпуска: 2009
Продолжительность: 01:38:02
Режиссёр: Игорь Масленников
В ролях:
Леонид Кулагин — купец Большов Самсон Силыч
Нина Усатова — его жена Аграфена Кондратьевна
Дмитрий Мурашев — Лазарь Подхалюзин
Яна Лакоба — Липочка, дочка Большовых
Лия Ахеджакова — сваха Устинья Наумовна
Татьяна Тарасова — ключница Фоминишна
Виктор Бычков — стряпчий Рисположенский
Владимир Алымов — Тишка
Надежда Кулакова — Анютка
Юрий Гальцев — Сысой Псоич
Описание: Купец Самсон Силыч Большов занял крупную сумму денег. И, не желая ее возвращать, объявил о банкротстве. Все свое имущество он перевел на имя приказчика Лазаря Подхалюзина, за которого — для своего же спокойствия — выдает замуж дочь Липочку. Но у Подхалюзина зреет тайный план…
Доп. информация: «Банкрот» — художественный фильм по пьесе Александра Островского «Свои люди — сочтёмся». Фильм снимался в Вологде .
Сэмпл: https://www.sendspace.com/file/49o4w5
Качество видео: DVB
Формат видео: MPG
Видео: MPEG2, 720:576, (16:9) 3400 Кбит/сек, 25,000 кадров/сек, (0.328 bit/pixel)
Аудио: MP2, 128 Кбит/сек, 48,0 КГц, 2 канала
MediaInfo
Общее
Полное имя : Банкрот.mpg
Формат : MPEG-PS
Размер файла : 2,45 Гбайт
Продолжительность : 1 ч. 38 м.
Общий поток : 3573 Кбит/сек
Видео
Идентификатор : 224 (0xE0)
Формат : MPEG Video
Версия формата : Version 2
Профиль формата : Main@Main
Параметр BVOP формата : Да
Параметр матрицы формата : Выборочная
Параметр GOP формата : M=3, N=24
Структура изображения : Frame
Продолжительность : 1 ч. 38 м.
Битрейт : 3400 Кбит/сек
Ширина : 720 пикселей
Высота : 576 пикселей
Соотношение сторон : 16:9
Частота кадров : 25,000 кадров/сек
Стандарт вещания : PAL
Цветовое пространство : YUV
Субдискретизация насыщенности : 4:2:0
Битовая глубина : 8 бит
Тип развёртки : Чересстрочная
Порядок развёртки : Верхнее поле первое
Метод сжатия : С потерями
Бит/(Пиксели*Кадры) : 0.328
Временной код первого кадра : 00:00:00:00
Оригинал временного кода : Group of pictures header
GOP, открыто/закрыто : Открыто
GOP, открыто/закрыто на первом кадре : Закрыто
Размер потока : 2,31 Гбайт (94%)
Аудио
Идентификатор : 192 (0xC0)
Формат : MPEG Audio
Версия формата : Version 1
Профиль формата : Layer 2
Продолжительность : 1 ч. 38 м.
Вид битрейта : Постоянный
Битрейт : 128 Кбит/сек
Каналы : 2 канала
Частота : 48,0 КГц
Метод сжатия : С потерями
Задержка видео : 8 мс.
Размер потока : 89,8 Мбайт (4%)
Скриншот c названием фильма Скриншоты Запись потока *.ts произведена тюнером цифрового телевидения. В связи с тем, что не все плееры воспроизводят поток *.ts (MPEG-TS) , в данном видеофайле мной был сделан ремукс потока *.ts (MPEG-TS) в *.mpg (MPEG-PS) программой VideoReDo.
Скачать

Скачать торрент!

Как скачивать? · Что такое торрент? · Рейтинг и ограничения

Сайт не распространяет и не хранит электронные версии произведений, а лишь предоставляет доступ к создаваемому пользователями каталогу ссылок на торрент-файлы, которые содержат только списки хеш-сумм

[Профиль] [ЛС]
Показать сообщения:    
Ответить на тему

Текущее время: Сегодня 22:42

Часовой пояс: GMT + 4



Вы не можете начинать темы
Вы не можете отвечать на сообщения
Вы не можете редактировать свои сообщения
Вы не можете удалять свои сообщения
Вы не можете голосовать в опросах
Вы не можете прикреплять файлы к сообщениям
Вы не можете скачивать файлы