Астерикс и Клеопатра / Asterix et Cleopatre / Asterix and Cleopatra (Рене Госинни, Альбер Удерзо / René Goscinny, Albert Uderzo) [1968, мультфильм, комедия, приключения, семейный, BDRip] MVO

Ответить на тему
 
Автор Сообщение

user ®

Стаж: 13 лет

Сообщений: 15041

Пост Пост: #1 от 24-Июн-2015 13:18

[Цитировать]

Астерикс и Клеопатра / Asterix et Cleopatre / Asterix and Cleopatra
«Astérix meets the Queen of the Nile!»
- Страна: Франция, Бельгия
Жанр: мультфильм, комедия, приключения, семейный
Продолжительность: 01:12:20
Год выпуска: 1968
Перевод: Профессиональный (многоголосый закадровый)
Русские субтитры: нет-Режиссёр: Рене Госинни, Альбер Удерзо / René Goscinny, Albert Uderzo-Роли озвучивали:
Роже Карель (Astérix, озвучка), Жак Морель (Obélix, озвучка), Мишлин Дэкс (Cléopâtre, озвучка), Жак Балютен (Tournevis, озвучка), Бернар Лавалетт (Amonbofis, озвучка), Жан Паредес (Jules César, озвучка), Люсьен Рэмбур (Panoramix, озвучка).-Роли дублировали: Александр Гаврилин (Astérix).-Описание:
Чтобы доказать Цезарю, что египетский народ по-прежнему велик, Клеопатра обещает построить роскошный дворец за 3 месяца. Поскольку построить дворец за такое короткое время обычным способом невозможно, зодчий царицы Едифис отправляется на север, в Галлию, просить помощи у друида-волшебника Панорамикса. Тот отправляет в Египет побратимов Астерикса и Обеликса, обладающих невероятной силой благодаря волшебному напитку. Злой жрец Амонбофис пытается помешать стройке, заманивая героев в ловушки, подстрекая рабов к забастовке, но всё тщетно. Ему удается устранить героев, лишь скомпрометировав их перед Клеопатрой — послав от их имени отравленный пирог. Цезарь, который не хочет проиграть пари Клеопатре, также вмешивается в строительство.-Мировая премьера: 19 декабря 1968
Релиз на DVD: 12 ноября 2003, «Videogram»
-Рейтинг
kinopoisk.ru: 7.603 (3345)
imdb.com: 7.20 (7016)
-Качество: BD-Rip | исх. ☞ « / 1080p. MPEG-4 AVC. Blu-ray »
Формат: AVI ///СОВМЕСТИМО С БЫТОВЫМИ ПЛЕЕРАМИ///→ //SAMPLE//
Видео: 704x512 (1.38:1), 23.976 fps, XviD build 66 ~1930 kbps avg, 0.22 bit/pixel
Аудио: 48.0 kHz, AC3 Dolby Digital, 2/0 (L,R) ch, ~224 kbps | MVO
Субтитры: Отсутствуют
Размер: 1119.38 Mb (1/4 DVD-R)
-MI
Общее
Полное имя : D:\Фильмы\Asterix et Cleopatre.1968.BD-Rip.XviD.1,09Gb.AC3.avi
Формат : AVI
Формат/Информация : Audio Video Interleave
Размер файла : 1,09 Гбайт
Продолжительность : 1 ч. 12 м.
Общий поток : 2163 Кбит/сек
Программа кодирования : VirtualDubMod 1.5.10.3 | www.virtualdub-fr.org || (build 2550/release)
Библиотека кодирования : VirtualDubMod build 2550/release
Видео
Идентификатор : 0
Формат : MPEG-4 Visual
Профиль формата : Advanced Simple@L5
Параметр BVOP формата : 1
Параметр QPel формата : Нет
Параметр GMC формата : Без точки перехода
Параметр матрицы формата : Выборочная
Идентификатор кодека : XVID
Идентификатор кодека/Подсказка : XviD
Продолжительность : 1 ч. 12 м.
Битрейт : 1930 Кбит/сек
Ширина : 704 пикселя
Высота : 512 пикселей
Соотношение сторон : 1,375
Частота кадров : 23,976 кадра/сек
Цветовое пространство : YUV
Субдискретизация насыщенности : 4:2:0
Битовая глубина : 8 бит
Тип развёртки : Прогрессивная
Метод сжатия : С потерями
Бит/(Пиксели*Кадры) : 0.223
Размер потока : 999 Мбайт (89%)
Библиотека кодирования : XviD 66
Аудио
Идентификатор : 1
Формат : AC-3
Формат/Информация : Audio Coding 3
Расширение режима : CM (complete main)
Параметр Endianness формата : Big
Идентификатор кодека : 2000
Продолжительность : 1 ч. 12 м.
Вид битрейта : Постоянный
Битрейт : 224 Кбит/сек
Каналы : 2 канала
Расположение каналов : Front: L R
Частота : 48,0 КГц
Битовая глубина : 16 бит
Метод сжатия : С потерями
Размер потока : 116 Мбайт (10%)
Выравнивание : Разделение по промежуткам
Продолжительность промежутка : 42 мс. (1,00 видеокадр)
Время предзагрузки промежутка : 500 мс.
Comparison
[url=http://***/forum/viewtopic.php?t=3744486]http://***/forum/viewtopic.php?t=3744486[/url]
http://screenshotcomparison.com/comparison/132330
Скриншоты
Скачать

Скачать торрент! Астерикс и Клеопатра / Asterix et Cleopatre / Asterix and Cleopatra (Рене Госинни, Альбер Удерзо / René Goscinny, Albert Uderzo) [1968, мультфильм, комедия, приключения, семейный, BDRip] MVO

Как скачивать? · Что такое торрент? · Рейтинг и ограничения

Сайт не распространяет и не хранит электронные версии произведений, а лишь предоставляет доступ к создаваемому пользователями каталогу ссылок на торрент-файлы, которые содержат только списки хеш-сумм

[Профиль] [ЛС]
Показать сообщения:    
Ответить на тему

Текущее время: Сегодня 03:42

Часовой пояс: GMT + 4



Вы не можете начинать темы
Вы не можете отвечать на сообщения
Вы не можете редактировать свои сообщения
Вы не можете удалять свои сообщения
Вы не можете голосовать в опросах
Вы не можете прикреплять файлы к сообщениям
Вы не можете скачивать файлы