Барон Мюнхгаузен: Тайна жителей Луны / Moon Madness / The Secret of the Selenites / Le Secret des Sélénites (Жан Имаж / Jean Image) [1984, мультфильм, DVDRip] Dub + AVO (Гаврилов) + Original Fra + Eng Dub

Ответить на тему
 
Автор Сообщение

user ®

Стаж: 13 лет

Сообщений: 15041

Пост Пост: #1 от 24-Июн-2015 04:03

[Цитировать]

Тайна жителей Луны
Le secret des sélénites
Страна: Франция
Жанр: мультфильм, фантастика, фэнтези, комедия, семейный
Продолжительность: 01:12:09
Год выпуска: 1984-Перевод: Профессиональный (дублированный)
Перевод: Авторский (одноголосый закадровый) - Андрей Гаврилов
Русские субтитры: нет
Режиссёр: Жан Имаж / Jean Image-Роли озвучивали: Доминик Патюрель, Пьер Десайлье, Serge Nadaud, Жак Марен, Марк Дюдикур, Жорж Атлас, Пьер Мира, Робер Роллис, Филипп Кастелли, Анджело Барди-Описание: 1787 год. Известный учёный и астролог Сириус открыл, что на луне есть жизнь. И если верить анналам, жители Луны владеют секретом бессмертия. Ученый попросит своего эксцентричного кузена Барона Мюнхаузена отправится на луну и узнать тайну бессмертия за большое вознаграждение. Ведомый больше жаждой приключений чем жадностью барон экипирует огромный трёхмачтовый корабль шарами горячего воздуха и отправляется в путь…-Релиз: | | -За перевод Гаврилова благодарим:
foxlight, v1111o, xerman13, zeleniy, Kastro, Эдуард, ZombX, Кирыч, Владимир Ленин, Daniel Rock, Multmir, duckling, ilgizik01, luka69, фёдор александрович-Качество: [url=http://***/forum/viewtopic.php?t=4910722]DVDRip[/url]
Формат: AVI
Видео: 704x544 (1.29:1), 25,000 fps, XviD 65 ~2 110 kbps avg, 0.22 bit/pixel
Аудио: 48 kHz, AC3 Dolby Digital, 2/0 (L,R) ch, ~192 kbps |DUB|
Аудио: 48 kHz, AC3 Dolby Digital, 2/0 (L,R) ch, ~192 kbps |AVO|
Аудио: 48 kHz, AC3 Dolby Digital, 2/0 (L,R) ch, ~192 kbps |FRA|
Аудио: 48 kHz, AC3 Dolby Digital, 2/0 (L,R) ch, ~192 kbps |ENG| отдельно
Субтитры: отсутствуют

MI

Общее
Полное имя : E:\incarcare\rip gata\Секрет.селенитов.1984.DVDRip.avi
Формат : AVI
Формат/Информация : Audio Video Interleave
Размер файла : 1,36 Гбайт
Продолжительность : 1 ч. 12 м.
Общий поток : 2705 Кбит/сек
Программа кодирования : VirtualDubMod 1.5.10.2 (build 2540/release)
Библиотека кодирования : VirtualDubMod build 2540/release
Видео
Идентификатор : 0
Формат : MPEG-4 Visual
Профиль формата : Advanced Simple@L5
Параметр BVOP формата : 1
Параметр QPel формата : Нет
Параметр GMC формата : Без точки перехода
Параметр матрицы формата : Выборочная
Идентификатор кодека : XVID
Идентификатор кодека/Подсказка : XviD
Продолжительность : 1 ч. 12 м.
Битрейт : 2110 Кбит/сек
Ширина : 704 пикселя
Высота : 544 пикселя
Соотношение сторон : 1,294
Частота кадров : 25,000 кадров/сек
Цветовое пространство : YUV
Субдискретизация насыщенности : 4:2:0
Битовая глубина : 8 бит
Тип развёртки : Прогрессивная
Метод сжатия : С потерями
Бит/(Пиксели*Кадры) : 0.220
Размер потока : 1,06 Гбайт (78%)
Библиотека кодирования : XviD 65
Аудио #1
Идентификатор : 1
Формат : AC-3
Формат/Информация : Audio Coding 3
Расширение режима : CM (complete main)
Параметр Endianness формата : Big
Идентификатор кодека : 2000
Продолжительность : 1 ч. 12 м.
Вид битрейта : Постоянный
Битрейт : 192 Кбит/сек
Каналы : 2 канала
Расположение каналов : Front: L R
Частота : 48,0 КГц
Метод сжатия : С потерями
Размер потока : 99,1 Мбайт (7%)
Выравнивание : Разделение по промежуткам
Продолжительность промежутка : 40 мс. (1,00 видеокадр)
Время предзагрузки промежутка : 500 мс.
Аудио #2
Идентификатор : 2
Формат : AC-3
Формат/Информация : Audio Coding 3
Расширение режима : CM (complete main)
Параметр Endianness формата : Big
Идентификатор кодека : 2000
Продолжительность : 1 ч. 12 м.
Вид битрейта : Постоянный
Битрейт : 192 Кбит/сек
Каналы : 2 канала
Расположение каналов : Front: L R
Частота : 48,0 КГц
Метод сжатия : С потерями
Размер потока : 99,1 Мбайт (7%)
Выравнивание : Разделение по промежуткам
Продолжительность промежутка : 40 мс. (1,00 видеокадр)
Время предзагрузки промежутка : 500 мс.
Аудио #3
Идентификатор : 3
Формат : AC-3
Формат/Информация : Audio Coding 3
Расширение режима : CM (complete main)
Параметр Endianness формата : Big
Идентификатор кодека : 2000
Продолжительность : 1 ч. 12 м.
Вид битрейта : Постоянный
Битрейт : 192 Кбит/сек
Каналы : 2 канала
Расположение каналов : Front: L R
Частота : 48,0 КГц
Метод сжатия : С потерями
Размер потока : 99,1 Мбайт (7%)
Выравнивание : Разделение по промежуткам
Продолжительность промежутка : 40 мс. (1,00 видеокадр)
Время предзагрузки промежутка : 500 мс.
Скриншоты
Скачать

Скачать торрент! Барон Мюнхгаузен: Тайна жителей Луны / Moon Madness / The Secret of the Selenites / Le Secret des Sélénites (Жан Имаж / Jean Image) [1984, мультфильм, DVDRip] Dub + AVO (Гаврилов) + Original Fra + Eng Dub

Как скачивать? · Что такое торрент? · Рейтинг и ограничения

Сайт не распространяет и не хранит электронные версии произведений, а лишь предоставляет доступ к создаваемому пользователями каталогу ссылок на торрент-файлы, которые содержат только списки хеш-сумм

[Профиль] [ЛС]
Показать сообщения:    
Ответить на тему

Текущее время: Сегодня 19:17

Часовой пояс: GMT + 4



Вы не можете начинать темы
Вы не можете отвечать на сообщения
Вы не можете редактировать свои сообщения
Вы не можете удалять свои сообщения
Вы не можете голосовать в опросах
Вы не можете прикреплять файлы к сообщениям
Вы не можете скачивать файлы