Последние рыцари / Last Knights (Казуаки Кирия / Kazuaki Kiriya) [2015, Чехия, Южная Корея, боевик, приключения, BDRip 720p] Dub (BD RUS) + Sub Eng + Original Eng

Ответить на тему
 
Автор Сообщение

user ®

Стаж: 7 лет 7 месяцев

Сообщений: 20008

Пост Пост: #1 от 24-Июн-2015 00:57

[Цитировать]

Последние рыцари / Last Knights
Страна: Чехия, Южная Корея
Студия: Luka Productions, Czech Anglo Productions
Жанр: боевик, приключения
Год выпуска: 2015
Продолжительность: 01:54:54
Перевод: Профессиональный (дублированный) BD RUS
Cубтитры: английские
Оригинальная аудиодорожка: английский
Режиссер: Казуаки Кирия / Kazuaki Kiriya
В ролях: Клайв Оуэн, Морган Фриман, Ан Сон Ги, Пак Си Ен, Аксель Хенни, Дэниэл Адегбойега, Шоре Агдашлу, Джеймс Бэбсон, Павел Бездек, Дэниэл Флейшер-Браун
Описание: Средневековье, междоусобные распри раздирают королевство на мелкие анклавы, их правители наращивают собственные военные силы. Лишь истинный благородный воин — Король Барток — видит силу и будущее в единстве. При поддержке своих преданных и закаленных в сражениях рыцарей, он способен объединить земли. Но коварные враги уничтожают короля. И тогда его верные рыцари во имя высшей справедливости и отмщения чести своего господина выступают на штурм самой защищенной крепости королевства. Они готовятся взять реванш ценою собственных жизней.
Сэмпл: Скачать
Тип релиза: BDRip 720p (SbR)
Контейнер: MKV
Видео: x264, 1280x534, 7245 kbps, 23.976 fps
Аудио №1: Russian: 48 kHz, AC3, 5.1, 640 kbps |Blu-ray RUS|
Аудио №2: English: 48 kHz, DTS, 5.1, 1509 kbps
Формат субтитров: английские
MediaInfo
General
Unique ID : 173219460225237230567956457869303061608 (0x8250DAC31F708BA9A3801ADA0DAB9C68)
Complete name : G:\Last.Knights.2015.720p.BluRay.Rus.Eng-SbR.mkv
Format : Matroska
Format version : Version 4 / Version 2
File size : 7.54 GiB
Duration : 1h 54mn
Overall bit rate : 9 398 Kbps
Movie name : Last Knights (2015) - Release by SbR
Encoded date : UTC 2015-06-23 06:03:36
Writing application : mkvmerge v8.0.0 ('Til The Day That I Die') 64bit
Writing library : libebml v1.3.1 + libmatroska v1.4.2
Attachements : cover.jpg / xlog.txt
Video
ID : 1
Format : AVC
Format/Info : Advanced Video Codec
Format profile : High@L4.1
Format settings, CABAC : Yes
Format settings, ReFrames : 12 frames
Codec ID : V_MPEG4/ISO/AVC
Duration : 1h 54mn
Bit rate : 7 062 Kbps
Width : 1 280 pixels
Height : 534 pixels
Display aspect ratio : 2.40:1
Frame rate mode : Constant
Frame rate : 23.976 fps
Color space : YUV
Chroma subsampling : 4:2:0
Bit depth : 8 bits
Scan type : Progressive
Bits/(Pixel*Frame) : 0.431
Stream size : 5.67 GiB (75%)
Writing library : x264 core 146 r2538kMod 121396c
Encoding settings : cabac=1 / ref=12 / deblock=1:-2:-2 / analyse=0x3:0x133 / me=umh / subme=11 / psy=1 / fade_compensate=0.00 / psy_rd=1.00:0.00 / mixed_ref=1 / me_range=32 / chroma_me=1 / trellis=2 / 8x8dct=1 / cqm=0 / deadzone=21,11 / fast_pskip=1 / chroma_qp_offset=-2 / threads=12 / lookahead_threads=2 / sliced_threads=0 / nr=0 / decimate=1 / interlaced=0 / bluray_compat=0 / constrained_intra=0 / fgo=0 / bframes=8 / b_pyramid=2 / b_adapt=2 / b_bias=0 / direct=1 / weightb=1 / open_gop=0 / weightp=2 / keyint=250 / keyint_min=23 / scenecut=40 / intra_refresh=0 / rc_lookahead=60 / rc=crf / mbtree=0 / crf=15.5000 / qcomp=0.70 / qpmin=0 / qpmax=69 / qpstep=4 / vbv_maxrate=62500 / vbv_bufsize=78125 / crf_max=0.0 / nal_hrd=none / filler=0 / ip_ratio=1.40 / pb_ratio=1.30 / aq=1:0.80
Language : English
Default : Yes
Forced : No
Color range : Limited
Color primaries : BT.709
Transfer characteristics : BT.709
Matrix coefficients : BT.709
Audio #1
ID : 2
Format : AC-3
Format/Info : Audio Coding 3
Mode extension : CM (complete main)
Format settings, Endianness : Big
Codec ID : A_AC3
Duration : 1h 54mn
Bit rate mode : Constant
Bit rate : 640 Kbps
Channel(s) : 6 channels
Channel positions : Front: L C R, Side: L R, LFE
Sampling rate : 48.0 KHz
Compression mode : Lossy
Stream size : 526 MiB (7%)
Title : Dub, Blu-ray RUS
Language : Russian
Default : Yes
Forced : No
Audio #2
ID : 3
Format : DTS
Format/Info : Digital Theater Systems
Mode : 16
Format settings, Endianness : Big
Codec ID : A_DTS
Duration : 1h 54mn
Bit rate mode : Constant
Bit rate : 1 509 Kbps
Channel(s) : 6 channels
Channel positions : Front: L C R, Side: L R, LFE
Sampling rate : 48.0 KHz
Bit depth : 24 bits
Compression mode : Lossy
Stream size : 1.21 GiB (16%)
Language : English
Default : No
Forced : No
Text
ID : 4
Format : UTF-8
Codec ID : S_TEXT/UTF8
Codec ID/Info : UTF-8 Plain Text
Language : English
Default : No
Forced : No
Menu
00:00:00.000 : en:Chapter 1
00:08:40.228 : en:Chapter 2
00:13:49.995 : en:Chapter 3
00:20:30.646 : en:Chapter 4
00:25:03.793 : en:Chapter 5
00:36:28.978 : en:Chapter 6
00:41:27.568 : en:Chapter 7
00:47:23.090 : en:Chapter 8
00:55:18.189 : en:Chapter 9
01:02:25.992 : en:Chapter 10
01:09:51.520 : en:Chapter 11
01:16:57.696 : en:Chapter 12
01:24:38.907 : en:Chapter 13
01:28:57.874 : en:Chapter 14
01:37:16.539 : en:Chapter 15
01:42:57.171 : en:Chapter 16
xlog
raw [info]: 1280x534p 1:1 @ 24000/1001 fps (cfr)
x264 [info]: using SAR=1/1
x264 [info]: using cpu capabilities: MMX2 SSE2Fast SSSE3 SSE4.2 AVX
x264 [info]: profile High, level 4.1
x264 [info]: frame I:1625 Avg QP:12.23 size:115233
x264 [info]: frame P:33074 Avg QP:13.80 size: 61333
x264 [info]: frame B:130609 Avg QP:15.68 size: 30848
x264 [info]: consecutive B-frames: 2.5% 1.8% 5.3% 12.7% 14.9% 40.7% 10.2% 5.4% 6.5%
x264 [info]: mb I I16..4: 6.0% 82.0% 12.0%
x264 [info]: mb P I16..4: 0.4% 31.9% 1.4% P16..4: 17.6% 23.8% 14.4% 2.9% 0.2% skip: 7.4%
x264 [info]: mb B I16..4: 0.1% 8.4% 0.2% B16..8: 29.3% 26.3% 9.0% direct: 8.2% skip:18.6% L0:48.5% L1:38.0% BI:13.5%
x264 [info]: 8x8 transform intra:94.9% inter:49.7%
x264 [info]: coded y,uvDC,uvAC intra: 97.4% 85.9% 67.3% inter: 48.2% 23.2% 2.6%
x264 [info]: i16 v,h,dc,p: 37% 6% 12% 46%
x264 [info]: i8 v,h,dc,ddl,ddr,vr,hd,vl,hu: 10% 7% 18% 9% 12% 11% 10% 10% 12%
x264 [info]: i4 v,h,dc,ddl,ddr,vr,hd,vl,hu: 19% 6% 8% 9% 14% 13% 11% 10% 11%
x264 [info]: i8c dc,h,v,p: 49% 24% 17% 10%
x264 [info]: Weighted P-Frames: Y:13.8% UV:6.8%
x264 [info]: ref P L0: 40.0% 9.1% 17.7% 8.2% 6.7% 4.8% 4.2% 2.4% 2.1% 1.6% 1.6% 1.3% 0.3% 0.0%
x264 [info]: ref B L0: 57.8% 15.5% 8.7% 5.0% 3.7% 3.1% 2.4% 1.6% 1.3% 0.7% 0.2%
x264 [info]: ref B L1: 88.7% 11.3%
x264 [info]: kb/s:7245.93
encoded 165308 frames, 6.45 fps, 7245.93 kb/s, duration 7:07:25.54
Скриншоты
Скачать

Скачать торрент!

Как скачивать? · Что такое торрент? · Рейтинг и ограничения

Сайт не распространяет и не хранит электронные версии произведений, а лишь предоставляет доступ к создаваемому пользователями каталогу ссылок на торрент-файлы, которые содержат только списки хеш-сумм

[Профиль] [ЛС]
Показать сообщения:    
Ответить на тему

Текущее время: Сегодня 23:47

Часовой пояс: GMT + 4



Вы не можете начинать темы
Вы не можете отвечать на сообщения
Вы не можете редактировать свои сообщения
Вы не можете удалять свои сообщения
Вы не можете голосовать в опросах
Вы не можете прикреплять файлы к сообщениям
Вы не можете скачивать файлы