Вот такие пироги / Home Fries (Дин Паризо / Dean Parisot) [1998, США, драма, мелодрама, комедия, WEB-DL 720p] Dub (Варус Видео) + DVO (DIVA Universal) + Sub Eng + Original Eng

Ответить на тему
 
Автор Сообщение

user ®

Стаж: 7 лет 7 месяцев

Сообщений: 20008

Пост Пост: #1 от 24-Июн-2015 00:57

[Цитировать]

Вот такие пироги / Home Fries
Страна: США
Жанр: драма, мелодрама, комедия
Год выпуска: 1998
Продолжительность: 01:33:34
Перевод 1: Профессиональный (дублированный) Варус Видео
Перевод 2: Профессиональный (двухголосый закадровый) DIVA Universal
Cубтитры: английские
Оригинальная аудиодорожка: английский
Режиссер: Дин Паризо / Dean Parisot
В ролях: Дрю Бэрримор, Кэтрин О’Хара, Люк Уилсон, Джейк Бьюзи, Шелли Дювалл, Ким Робиллард, Дэрил Митчелл, Лэнни Флаэрти, Крис Эллис, Блу Декерт...
Описание: У двух молодых людей умирает отец, а при жизни он изменял их матери. Братья пытаются найти разлучницу. Один из них хочет убить ее, а другой, случайно с ней познакомившись, влюбляется и хочет жениться, а она при том еще и беременна.
Если родственные связи смешать немного с вертолетами, приправить гамбургерами, а затем залить все любовью, получатся те еще пироги!
Доп. информация: За оцифровку VHS от "Варус Видео" спасибо Fikaloid. За перевод DIVA Universal спасибо edich2. Синхронизация переводов - Dreven.
Сэмпл: http://multi-up.com/1055112
Тип релиза: WEB-DL 720p
Контейнер: MKV
Видео: 1280x720 (16:9), 23.976 fps, AVC, ~3748 Kbps, 0.170 bits/pixel
Аудио 1: Russian, 48.0 KHz, AC3, 2 ch, 224 Kbps - Варус Видео
Аудио 2: Russian, 48.0 KHz, AC3, 2 ch, 192 Kbps - DIVA Universal
Аудио 3: English, 48.0 KHz, AC3, 6 ch, 384 Kbps

Сравнение с DVD MediaInfo
General
Unique ID : 220781980292683574084381795630305935102 (0xA619100D48647BAF9A49352A9BBE7EFE)
Complete name : D:\Home Fries. WEB-DL 720p.mkv
Format : Matroska
Format version : Version 4 / Version 2
File size : 3.03 GiB
Duration : 1h 33mn
Overall bit rate : 4 640 Kbps
Movie name :
Encoded date : UTC 2015-06-23 06:36:44
Writing application : mkvmerge v8.0.0 ('Til The Day That I Die') 64bit
Writing library : libebml v1.3.1 + libmatroska v1.4.2
DURATION : 01:33:33.952000000
NUMBER_OF_FRAMES : 175436
NUMBER_OF_BYTES : 269469696
_STATISTICS_WRITING_APP : mkvmerge v8.0.0 ('Til The Day That I Die') 64bit
_STATISTICS_WRITING_DATE_UT : 2015-06-23 06:36:44
_STATISTICS_TAGS : BPS DURATION NUMBER_OF_FRAMES NUMBER_OF_BYTES
Video
ID : 1
Format : AVC
Format/Info : Advanced Video Codec
Format profile : High@L3.1
Format settings, CABAC : No
Format settings, ReFrames : 2 frames
Format settings, GOP : N=1
Codec ID : V_MPEG4/ISO/AVC
Duration : 1h 33mn
Bit rate : 3 748 Kbps
Width : 1 280 pixels
Height : 720 pixels
Display aspect ratio : 16:9
Frame rate mode : Constant
Frame rate : 23.976 fps
Color space : YUV
Chroma subsampling : 4:2:0
Bit depth : 8 bits
Scan type : Progressive
Bits/(Pixel*Frame) : 0.170
Stream size : 2.45 GiB (81%)
Language : English
Default : Yes
Forced : No
Color range : Limited
Color primaries : BT.709
Transfer characteristics : BT.709
Matrix coefficients : BT.709
Audio #1
ID : 2
Format : AC-3
Format/Info : Audio Coding 3
Mode extension : CM (complete main)
Format settings, Endianness : Big
Codec ID : A_AC3
Duration : 1h 33mn
Bit rate mode : Constant
Bit rate : 224 Kbps
Channel(s) : 2 channels
Channel positions : Front: L R
Sampling rate : 48.0 KHz
Compression mode : Lossy
Stream size : 150 MiB (5%)
Title : Варус Видео
Language : Russian
Default : Yes
Forced : No
Audio #2
ID : 3
Format : AC-3
Format/Info : Audio Coding 3
Mode extension : CM (complete main)
Format settings, Endianness : Big
Codec ID : A_AC3
Duration : 1h 33mn
Bit rate mode : Constant
Bit rate : 192 Kbps
Channel(s) : 2 channels
Channel positions : Front: L R
Sampling rate : 48.0 KHz
Compression mode : Lossy
Stream size : 128 MiB (4%)
Title : DIVA Universal
Language : Russian
Default : No
Forced : No
Audio #3
ID : 4
Format : AC-3
Format/Info : Audio Coding 3
Mode extension : CM (complete main)
Format settings, Endianness : Big
Codec ID : A_AC3
Duration : 1h 33mn
Bit rate mode : Constant
Bit rate : 384 Kbps
Channel(s) : 6 channels
Channel positions : Front: L C R, Side: L R, LFE
Sampling rate : 48.0 KHz
Compression mode : Lossy
Stream size : 257 MiB (8%)
Language : English
Default : No
Forced : No
Text
ID : 5
Format : UTF-8
Codec ID : S_TEXT/UTF8
Codec ID/Info : UTF-8 Plain Text
Language : English
Default : No
Forced : No
Menu
00:00:00.000 : en:Lovers spat (Credits; Memories Are Made of This).
00:01:47.000 : en:Interference.
00:03:33.000 : en:Loose ends (Life Is Just a Bowl of Cherries. Baby Did a Bad Bad Thing).
00:05:24.000 : en:Grieving survivors.
00:08:04.000 : en:Burger-Matic's new employee.
00:11:01.000 : en:Buzz Burger-Matic to the rescue.
00:14:04.000 : en:A queen ant dream.
00:17:16.000 : en:The perfect murder.
00:19:58.000 : en:A matter of respect.
00:23:17.000 : en:Lamaze class.
00:27:59.000 : en:A really good mother-to-be.
00:31:31.000 : en:Attired for Mom's night.
00:36:42.000 : en:Fast-food-flavored funeral.
00:38:23.000 : en:The co-pilot gunner seat.
00:40:20.000 : en:The cockpit kiss.
00:42:12.000 : en:The woman in the picture.
00:48:16.000 : en:Murder...halfway.
00:49:14.000 : en:An unexpected visitor.
00:54:51.000 : en:In love-and so screwed.
00:57:05.000 : en:This much difference.
00:57:45.000 : en:Emergency inspection (The Devil's Chasing Me).
00:59:59.000 : en:Copter chase.
01:01:09.000 : en:Angus takes aim.
01:07:34.000 : en:Dorian's role (Magic Moments).
01:11:11.000 : en:Explaining things.
01:13:26.000 : en:End Credits (Heaven of My Heart, The Devil's Chasing Me).
Скриншоты
Скачать

Скачать торрент!

Как скачивать? · Что такое торрент? · Рейтинг и ограничения

Сайт не распространяет и не хранит электронные версии произведений, а лишь предоставляет доступ к создаваемому пользователями каталогу ссылок на торрент-файлы, которые содержат только списки хеш-сумм

[Профиль] [ЛС]
Показать сообщения:    
Ответить на тему

Текущее время: Сегодня 16:35

Часовой пояс: GMT + 4



Вы не можете начинать темы
Вы не можете отвечать на сообщения
Вы не можете редактировать свои сообщения
Вы не можете удалять свои сообщения
Вы не можете голосовать в опросах
Вы не можете прикреплять файлы к сообщениям
Вы не можете скачивать файлы