За кулисами / Beyond the Lights (Джина Принс-Байтвуд / Gina Prince-Bythewood) [2014, США, драма, музыка, BDRip 720p] Dub (Line) + Sub Eng + Original Eng

Ответить на тему
 
Автор Сообщение

user ®

Стаж: 7 лет 7 месяцев

Сообщений: 20008

Пост Пост: #1 от 24-Июн-2015 00:57

[Цитировать]

За кулисами / Beyond the Lights
Страна: США
Студия: Homegrown Pictures
Жанр: драма, музыка
Год выпуска: 2014
Продолжительность: 01:56:31
Перевод: Профессиональный (дублированный) Line
Cубтитры: английские
Оригинальная аудиодорожка: английский
Режиссер: Джина Принс-Байтвуд / Gina Prince-Bythewood
В ролях: Гугу Эмбата-Ро, Нэйт Паркер, Минни Драйвер, Дэнни Гловер, Машин Ган Келли, Дэррил Стефенс, Илэйн Тан, Исаак Кис, Тайлер Кристофер, Бенито Мартинес
Описание: Молодая талантливая певица сталкивается с давлением от обретенной славы и успеха…

Тип релиза: BDRip 720p
Контейнер: MKV
Видео: MPEG-4 AVC, 5215 Кбит/с, 1280x720, 23,976 fps
Аудио: Rus, AC3, 384 kb/s (2 ch), 48 kHz
Аудио 2: Eng, DTS, 1510 kb/s (6 ch), 48 kHz
Формат субтитров: softsub (SRT)
MediaInfo
Format : Matroska
Format version : Version 4 / Version 2
File size : 5.90 GiB
Duration : 1h 56mn
Overall bit rate : 7 252 Kbps
Movie name : За кулисами. (Tonik)
Encoded date : UTC 2015-06-23 14:53:52
Writing application : mkvmerge v7.1.0 ('Good Love') 64bit built on Jul 27 2014 13:06:55
Writing library : libebml v1.3.0 + libmatroska v1.4.1
_STATISTICS_WRITING_APP : mkvmerge v7.1.0 ('Good Love') 64bit built on Jul 27 2014 13:06:55
_STATISTICS_WRITING_DATE_UTC : 2015-06-23 14:53:52
_STATISTICS_TAGS : BPS DURATION NUMBER_OF_FRAMES NUMBER_OF_BYTES
DURATION : 01:56:29.920000000
NUMBER_OF_FRAMES : 218435
NUMBER_OF_BYTES : 335516160
Video
ID : 1
Format : AVC
Format/Info : Advanced Video Codec
Format profile : High@L4.1
Format settings, CABAC : Yes
Format settings, ReFrames : 9 frames
Codec ID : V_MPEG4/ISO/AVC
Duration : 1h 56mn
Bit rate : 5 215 Kbps
Width : 1 280 pixels
Height : 720 pixels
Display aspect ratio : 16:9
Frame rate mode : Constant
Frame rate : 23.976 fps
Color space : YUV
Chroma subsampling : 4:2:0
Bit depth : 8 bits
Scan type : Progressive
Bits/(Pixel*Frame) : 0.236
Stream size : 4.24 GiB (72%)
Writing library : x264 core 144 r2525kMod 40bb568
Encoding settings : cabac=1 / ref=9 / deblock=1:-3:-3 / analyse=0x3:0x133 / me=umh / subme=10 / psy=1 / fade_compensate=0.00 / psy_rd=1.08:0.00 / mixed_ref=1 / me_range=24 / chroma_me=1 / trellis=2 / 8x8dct=1 / cqm=0 / deadzone=21,11 / fast_pskip=1 / chroma_qp_offset=-2 / threads=6 / lookahead_threads=1 / sliced_threads=0 / nr=0 / decimate=1 / interlaced=0 / bluray_compat=0 / constrained_intra=0 / fgo=0 / bframes=11 / b_pyramid=2 / b_adapt=2 / b_bias=0 / direct=3 / weightb=1 / open_gop=0 / weightp=2 / keyint=250 / keyint_min=23 / scenecut=40 / intra_refresh=0 / rc=crf / mbtree=0 / crf=15.3000 / qcomp=0.65 / qpmin=0 / qpmax=69 / qpstep=4 / ip_ratio=1.30 / pb_ratio=1.20 / aq=3:0.68
Language : English
Default : Yes
Forced : No
Matrix coefficients : BT.709
DURATION : 01:56:31.902000000
NUMBER_OF_FRAMES : 167638
NUMBER_OF_BYTES : 4681724766
_STATISTICS_WRITING_APP : mkvmerge v7.1.0 ('Good Love') 64bit built on Jul 27 2014 13:06:55
_STATISTICS_WRITING_DATE_UTC : 2015-06-23 14:53:52
_STATISTICS_TAGS : BPS DURATION NUMBER_OF_FRAMES NUMBER_OF_BYTES
Audio #1
ID : 2
Format : AC-3
Format/Info : Audio Coding 3
Mode extension : CM (complete main)
Format settings, Endianness : Big
Codec ID : A_AC3
Duration : 1h 56mn
Bit rate mode : Constant
Bit rate : 384 Kbps
Channel(s) : 2 channels
Channel positions : Front: L R
Sampling rate : 48.0 KHz
Bit depth : 16 bits
Compression mode : Lossy
Stream size : 320 MiB (5%)
Title : line
Language : Russian
Default : Yes
Forced : No
Audio #2
ID : 3
Format : DTS
Format/Info : Digital Theater Systems
Mode : 16
Format settings, Endianness : Big
Codec ID : A_DTS
Duration : 1h 56mn
Bit rate mode : Constant
Bit rate : 1 509 Kbps
Channel(s) : 6 channels
Channel positions : Front: L C R, Side: L R, LFE
Sampling rate : 48.0 KHz
Bit depth : 24 bits
Compression mode : Lossy
Stream size : 1.23 GiB (21%)
Language : English
Default : No
Forced : No
Text #1
ID : 4
Format : UTF-8
Codec ID : S_TEXT/UTF8
Codec ID/Info : UTF-8 Plain Text
Language : English
Default : No
Forced : No
Text #2
ID : 5
Format : UTF-8
Codec ID : S_TEXT/UTF8
Codec ID/Info : UTF-8 Plain Text
Title : SDH
Language : English
Default : No
Forced : No
Menu
00:00:00.000 : en:00:00:00.000
00:04:15.005 : en:00:04:15.005
00:09:03.084 : en:00:09:03.084
00:14:48.763 : en:00:14:48.763
00:20:25.141 : en:00:20:25.141
00:25:46.086 : en:00:25:46.086
00:28:39.593 : en:00:28:39.593
00:32:54.139 : en:00:32:54.139
00:38:44.489 : en:00:38:44.489
00:43:01.954 : en:00:43:01.954
00:47:45.988 : en:00:47:45.988
00:52:20.179 : en:00:52:20.179
00:56:24.506 : en:00:56:24.506
01:00:05.936 : en:01:00:05.936
01:05:07.737 : en:01:05:07.737
01:11:29.869 : en:01:11:29.869
01:15:13.509 : en:01:15:13.509
01:20:44.548 : en:01:20:44.548
01:26:30.644 : en:01:26:30.644
01:31:06.836 : en:01:31:06.836
01:37:16.581 : en:01:37:16.581
01:41:57.319 : en:01:41:57.319
01:47:20.976 : en:01:47:20.976
01:49:30.147 : en:01:49:30.147
Скриншоты
Скачать

Скачать торрент!

Как скачивать? · Что такое торрент? · Рейтинг и ограничения

Сайт не распространяет и не хранит электронные версии произведений, а лишь предоставляет доступ к создаваемому пользователями каталогу ссылок на торрент-файлы, которые содержат только списки хеш-сумм

[Профиль] [ЛС]
Показать сообщения:    
Ответить на тему

Текущее время: Сегодня 00:40

Часовой пояс: GMT + 4



Вы не можете начинать темы
Вы не можете отвечать на сообщения
Вы не можете редактировать свои сообщения
Вы не можете удалять свои сообщения
Вы не можете голосовать в опросах
Вы не можете прикреплять файлы к сообщениям
Вы не можете скачивать файлы