71 / \'71 (Ян Деманж / Yann Demange) [2014, Великобритания, боевик, триллер, драма, BDRip 720p] DVO (Sunny-Films) + VO (Матвеев) + Original (Eng) + Sub (Rus, Eng)

Ответить на тему
 
Автор Сообщение

user ®

Стаж: 7 лет 7 месяцев

Сообщений: 20008

Пост Пост: #1 от 23-Июн-2015 18:45

[Цитировать]

71 / '71
Год выпуска: 2014
Страна: Великобритания
Жанр: боевик, триллер, драма
Продолжительность: 01:39:25
Перевод №1: Любительский (двухголосный закадровый) (Sunny-Films)
Перевод №2: Одноголосный закадровый (Алексей Doctor Joker Матвеев)
Cубтитры: русские, английские
Оригинальная аудиодорожка: английская
Оглавление: 12 глав
Режиссёр: Ян Деманж /Yann Demange/
В ролях: Джек О’Коннелл /Jack O'Connell/, Пол Андерсон /Paul Anderson/, Шон Харрис /Sean Harris/, Денис Гоф /Denise Gough/, Сэм Рид /Sam Reid/, Чарли Мерфи /Charlie Murphy/, Ричард Дормер /Richard Dormer/, Валин Кэйн /Valene Kane/
Описание:
1971 год. Конфликт в Северной Ирландии перерастает в гражданскую войну. Новобранца Гари отправляют в зону военных действий в Белфасте. Город разделился на «лояльных» протестантов и «враждебных» католиков. Обе стороны имеют военизированные подразделения, кроме того, радикальные уличные банды и тайные агенты со всех сторон пытаются отстаивать свои интересы…
Дополнительная информация:
IMDB User Rating→: 7.2/10 (20,166 votes)
Рейтинг фильма КиноПоиск.Ru→: 6.949 (1 507 голосов)
  • Одноголоски datynet и PashaUP добавлять не стал, так как преимуществ перед двухголоской никаких, а текст перевода тот же;
  • В переводе Матвеева присутствует ненормативная лексика. Перевод доступен благодаря пользователям «Переулка Переводмана»: salinger, paulwalker, kidman644, Юрий Деточкин, 7654, будулайроманов, dikii, hintoz, guinness, Старый. Работа со звуком — Perevodman.
    Качество: BDRip (by BodoiCuHo@VietHD)
    Контейнер: MKV
    Видеопоток: 1280x536p, 23.976 fps, x264 ~10446 kbps
    Аудиопоток №1 (RUS): DD 2.0, 48 kHz, 192 kbps | двухголосный закадровый (Sunny-Films)
    Аудиопоток №2 (RUS): DD 5.1, 48 kHz, 640 kbps | одноголосный закадровый (Алексей Doctor Joker Матвеев)
    Аудиопоток №3 (ENG): DD 5.1, 48 kHz, 640 kbps
    Субтитры №1 (RUS): SRT/UTF8 | Professor
    Субтитры №2 (RUS): SRT/UTF8 | Алексей Doctor Joker Матвеев
    Субтитры №3 (ENG): SRT/UTF8 | SDH
    Сэмпл: Яндекс.Диск→, nekaka→, sendspace→
    x264 Log
x264 [info]: frame I:910   Avg QP:14.75  size:119378
x264 [info]: frame P:31579 Avg QP:16.42  size: 75598
x264 [info]: frame B:110526 Avg QP:17.99  size: 47885
x264 [info]: consecutive B-frames:  2.4%  3.4%  9.3% 14.1% 14.4% 46.4%  8.6%  1.5%
encoded 143015 frames, 8.446 fps, 10445.73 kb/s, 7427.7 MB
MediaInfo
General
Unique ID                                : 175730048348288562983500522338266989299 (0x843460503BA680B28BA00F252AC942F3)
Complete name                            : 71.2014.720p.BDRip.x264.DD.SRT-VietHD.mkv
Format                                   : Matroska
Format version                           : Version 4 / Version 2
File size                                : 8.28 GiB
Duration                                 : 1h 39mn
Overall bit rate                         : 11.9 Mbps
Movie name                               : '71 (2014) 720p BDRip by VietHD
Encoded date                             : UTC 2015-06-22 09:24:52
Writing application                      : mkvmerge v7.8.0 ('River Man') 64bit built on Mar 27 2015 16:31:37
Writing library                          : libebml v1.3.1 + libmatroska v1.4.2
DURATION                                 : 01:39:24.960000000
NUMBER_OF_FRAMES                         : 186405
NUMBER_OF_BYTES                          : 477196800
_STATISTICS_WRITING_APP                  : mkvmerge v7.8.0 ('River Man') 64bit built on Mar 27 2015 16:31:37
_STATISTICS_WRITING_DATE_UTC             : 2015-06-22 09:24:52
_STATISTICS_TAGS                         : BPS DURATION NUMBER_OF_FRAMES NUMBER_OF_BYTES
Video
ID                                       : 1
Format                                   : AVC
Format/Info                              : Advanced Video Codec
Format profile                           : High@L4.1
Format settings, CABAC                   : Yes
Format settings, ReFrames                : 12 frames
Codec ID                                 : V_MPEG4/ISO/AVC
Duration                                 : 1h 39mn
Bit rate                                 : 10.5 Mbps
Width                                    : 1 280 pixels
Height                                   : 536 pixels
Display aspect ratio                     : 2.40:1
Frame rate mode                          : Constant
Frame rate                               : 23.976 fps
Color space                              : YUV
Chroma subsampling                       : 4:2:0
Bit depth                                : 8 bits
Scan type                                : Progressive
Bits/(Pixel*Frame)                       : 0.638
Stream size                              : 7.09 GiB (86%)
Title                                    : 1280x536, 23.976 fps, x264 ~10446 kbps
Writing library                          : x264 core 146 r0+2584 6cf85c6 t_mod_Custom [8-bit@all ]
Encoding settings                        : cabac=1 / ref=12 / deblock=1:-3:-3 / analyse=0x3:0x133 / me=umh / subme=10 / psy=1 / fade_compensate=0.00 / psy_rd=1.05:0.00 / mixed_ref=1 / me_range=24 / chroma_me=1 / trellis=2 / 8x8dct=1 / cqm=0 / deadzone=21,11 / fast_pskip=0 / chroma_qp_offset=-2 / threads=12 / lookahead_threads=2 / sliced_threads=0 / nr=0 / decimate=0 / interlaced=0 / bluray_compat=0 / constrained_intra=0 / fgo=0 / bframes=7 / b_pyramid=2 / b_adapt=2 / b_bias=0 / direct=3 / weightb=1 / open_gop=0 / weightp=2 / keyint=250 / keyint_min=23 / scenecut=40 / intra_refresh=0 / rc_lookahead=60 / rc=2pass / mbtree=0 / bitrate=10500 / ratetol=1.0 / qcomp=0.65 / qpmin=0:0:0 / qpmax=69:69:69 / qpstep=4 / cplxblur=20.0 / qblur=0.5 / vbv_maxrate=62500 / vbv_bufsize=78125 / nal_hrd=none / filler=0 / ip_ratio=1.30 / pb_ratio=1.20 / aq=3:0.70 / aq-sensitivity=10.00 / aq-factor=1.00:1.00:1.00 / aq2=0 / aq3=0
Language                                 : English
Default                                  : Yes
Forced                                   : No
Color range                              : Limited
Matrix coefficients                      : BT.709
DURATION                                 : 01:39:24.918000000
NUMBER_OF_FRAMES                         : 143015
NUMBER_OF_BYTES                          : 7788485906
_STATISTICS_WRITING_APP                  : mkvmerge v7.8.0 ('River Man') 64bit built on Mar 27 2015 16:31:37
_STATISTICS_WRITING_DATE_UTC             : 2015-06-22 09:24:52
_STATISTICS_TAGS                         : BPS DURATION NUMBER_OF_FRAMES NUMBER_OF_BYTES
Audio #1
ID                                       : 2
Format                                   : AC-3
Format/Info                              : Audio Coding 3
Mode extension                           : CM (complete main)
Format settings, Endianness              : Big
Codec ID                                 : A_AC3
Duration                                 : 1h 39mn
Bit rate mode                            : Constant
Bit rate                                 : 192 Kbps
Channel(s)                               : 2 channels
Channel positions                        : Front: L R
Sampling rate                            : 48.0 KHz
Bit depth                                : 16 bits
Compression mode                         : Lossy
Stream size                              : 137 MiB (2%)
Title                                    : RUS DVO Sunny-Films DD 2.0, 48 kHz, 192 kbps
Language                                 : Russian
Default                                  : Yes
Forced                                   : No
Audio #2
ID                                       : 3
Format                                   : AC-3
Format/Info                              : Audio Coding 3
Mode extension                           : CM (complete main)
Format settings, Endianness              : Big
Codec ID                                 : A_AC3
Duration                                 : 1h 39mn
Bit rate mode                            : Constant
Bit rate                                 : 640 Kbps
Channel(s)                               : 6 channels
Channel positions                        : Front: L C R, Side: L R, LFE
Sampling rate                            : 48.0 KHz
Bit depth                                : 16 bits
Compression mode                         : Lossy
Stream size                              : 455 MiB (5%)
Title                                    : RUS VO А.Матвеев DD 5.1, 48 kHz, 640 kbps
Language                                 : Russian
Default                                  : No
Forced                                   : No
Audio #3
ID                                       : 4
Format                                   : AC-3
Format/Info                              : Audio Coding 3
Mode extension                           : CM (complete main)
Format settings, Endianness              : Big
Codec ID                                 : A_AC3
Duration                                 : 1h 39mn
Bit rate mode                            : Constant
Bit rate                                 : 640 Kbps
Channel(s)                               : 6 channels
Channel positions                        : Front: L C R, Side: L R, LFE
Sampling rate                            : 48.0 KHz
Bit depth                                : 16 bits
Compression mode                         : Lossy
Stream size                              : 455 MiB (5%)
Title                                    : ENG DD 5.1, 48 kHz, 640 kbps
Language                                 : English
Default                                  : No
Forced                                   : No
Text #1
ID                                       : 5
Format                                   : UTF-8
Codec ID                                 : S_TEXT/UTF8
Codec ID/Info                            : UTF-8 Plain Text
Title                                    : RUS Professor SRT
Language                                 : Russian
Default                                  : No
Forced                                   : No
Text #2
ID                                       : 6
Format                                   : UTF-8
Codec ID                                 : S_TEXT/UTF8
Codec ID/Info                            : UTF-8 Plain Text
Title                                    : RUS А.Матвеев SRT
Language                                 : Russian
Default                                  : No
Forced                                   : No
Text #3
ID                                       : 7
Format                                   : UTF-8
Codec ID                                 : S_TEXT/UTF8
Codec ID/Info                            : UTF-8 Plain Text
Title                                    : ENG SDH SRT
Language                                 : English
Default                                  : No
Forced                                   : No
Menu
00:00:00.000                             : en:00:00:00.000
00:07:32.661                             : en:00:07:32.661
00:14:21.652                             : en:00:14:21.652
00:28:27.497                             : en:00:28:27.497
00:34:31.820                             : en:00:34:31.820
00:40:27.008                             : en:00:40:27.008
00:50:16.305                             : en:00:50:16.305
00:57:46.380                             : en:00:57:46.380
01:04:55.809                             : en:01:04:55.809
01:15:41.537                             : en:01:15:41.537
01:22:14.263                             : en:01:22:14.263
01:30:50.236                             : en:01:30:50.236
Скриншоты Source vs. VietHD
Скачать

Скачать торрент!

Как скачивать? · Что такое торрент? · Рейтинг и ограничения

Сайт не распространяет и не хранит электронные версии произведений, а лишь предоставляет доступ к создаваемому пользователями каталогу ссылок на торрент-файлы, которые содержат только списки хеш-сумм

[Профиль] [ЛС]
Показать сообщения:    
Ответить на тему

Текущее время: Сегодня 11:58

Часовой пояс: GMT + 4



Вы не можете начинать темы
Вы не можете отвечать на сообщения
Вы не можете редактировать свои сообщения
Вы не можете удалять свои сообщения
Вы не можете голосовать в опросах
Вы не можете прикреплять файлы к сообщениям
Вы не можете скачивать файлы