Вся королевская рать / All the King\'s Men (Стивен Зеллиан / Steven Zaillian) [2006, Германия, США, триллер, драма, BDRip 720p] MVO + 2x AVO (Немахов, Карповский) + Sub Rus, Eng + Original Eng

Ответить на тему
 
Автор Сообщение

user ®

Стаж: 7 лет 7 месяцев

Сообщений: 20008

Пост Пост: #1 от 23-Июн-2015 18:45

[Цитировать]

Вся королевская рать / All the King's Men
Страна: Германия, США
Жанр: триллер, драма
Год выпуска: 2006
Продолжительность: 02:08:03
Перевод №1: Профессиональный (многоголосый закадровый)
Перевод №2: Авторский (одноголосый закадровый) Немахов Юрий
Перевод №3: Авторский (одноголосый закадровый) Карповский Антон
Cубтитры: русские, английские
Оригинальная аудиодорожка: английский
Режиссер: Стивен Зеллиан / Steven Zaillian
В ролях: Шон Пенн, Джуд Лоу, Энтони Хопкинс, Кейт Уинслет, Марк Руффало, Патриция Кларксон, Джеймс Гандольфини, Джеки Эрл Хейли, Кэти Бэйкер
Описание: Главный герой повествования, журналист Джек Бурден, поддается обаянию политика-популиста Уилли Старка. Старк становится для него настоящим кумиром, однако по мере общения с политиком Бурден осознает, что тот далек от идеала.
Старк, на заре своей карьеры искренне желавший искоренить коррупцию в правительстве, получив полномочия сильных мира сего, сам становится таким же, как и те, с кем он раньше собирался бороться.

MPAA: PG-13 - Детям до 13 лет просмотр не желателен
Сэмпл: Скачать
Тип релиза: BDRip 720p (SbR)
Контейнер: MKV
Видео: 1280x694, 23.976 fps, x264 ~6041 kbps
Аудио №1: русский / DTS / 5.1 / 48 kHz / 1509 kbps |Многоголосый|
Аудио №2: русский / DTS / 5.1 / 48 kHz / 1509 kbps |Немахов|
Аудио №3: русский / AC3 / 2.0 / 48 kHz / 192 kbps |Карповский|
Аудио №4: английский / DTS / 5.1 / 48 kHz / 1509 kbps
Формат субтитров: русские, английские
MediaInfo
General
Unique ID : 242061319418120530781914009540760919250 (0xB61B5078E1FB087F896B54D049B35CD2)
Complete name : G:\All.the.King's.Men.2006.720p.BluRay.3xRus.Eng-SbR.mkv
Format : Matroska
Format version : Version 4 / Version 2
File size : 9.63 GiB
Duration : 2h 8mn
Overall bit rate : 10.8 Mbps
Movie name : All the King's Men (2006) - Release by SbR
Encoded date : UTC 2015-06-22 09:52:27
Writing application : mkvmerge v8.0.0 ('Til The Day That I Die') 64bit
Writing library : libebml v1.3.1 + libmatroska v1.4.2
Attachements : cover.jpg / xlog.txt
Video
ID : 1
Format : AVC
Format/Info : Advanced Video Codec
Format profile : High@L4.1
Format settings, CABAC : Yes
Format settings, ReFrames : 9 frames
Codec ID : V_MPEG4/ISO/AVC
Duration : 2h 8mn
Bit rate : 5 832 Kbps
Width : 1 280 pixels
Height : 694 pixels
Display aspect ratio : 1.85:1
Frame rate mode : Constant
Frame rate : 23.976 fps
Color space : YUV
Chroma subsampling : 4:2:0
Bit depth : 8 bits
Scan type : Progressive
Bits/(Pixel*Frame) : 0.274
Stream size : 5.22 GiB (54%)
Writing library : x264 core 146 r2538kMod 121396c
Encoding settings : cabac=1 / ref=9 / deblock=1:-2:-2 / analyse=0x3:0x133 / me=umh / subme=11 / psy=1 / fade_compensate=0.00 / psy_rd=1.00:0.00 / mixed_ref=1 / me_range=32 / chroma_me=1 / trellis=2 / 8x8dct=1 / cqm=0 / deadzone=21,11 / fast_pskip=1 / chroma_qp_offset=-2 / threads=12 / lookahead_threads=2 / sliced_threads=0 / nr=0 / decimate=1 / interlaced=0 / bluray_compat=0 / constrained_intra=0 / fgo=0 / bframes=8 / b_pyramid=2 / b_adapt=2 / b_bias=0 / direct=1 / weightb=1 / open_gop=0 / weightp=2 / keyint=250 / keyint_min=23 / scenecut=40 / intra_refresh=0 / rc_lookahead=60 / rc=crf / mbtree=0 / crf=16.0000 / qcomp=0.70 / qpmin=0 / qpmax=69 / qpstep=4 / vbv_maxrate=62500 / vbv_bufsize=78125 / crf_max=0.0 / nal_hrd=none / filler=0 / ip_ratio=1.40 / pb_ratio=1.30 / aq=1:0.80
Language : English
Default : Yes
Forced : No
Color range : Limited
Color primaries : BT.709
Transfer characteristics : BT.709
Matrix coefficients : BT.709
Audio #1
ID : 2
Format : DTS
Format/Info : Digital Theater Systems
Mode : 16
Format settings, Endianness : Big
Codec ID : A_DTS
Duration : 2h 8mn
Bit rate mode : Constant
Bit rate : 1 509 Kbps
Channel(s) : 6 channels
Channel positions : Front: L C R, Side: L R, LFE
Sampling rate : 48.0 KHz
Bit depth : 24 bits
Compression mode : Lossy
Stream size : 1.35 GiB (14%)
Title : Многоголосый
Language : Russian
Default : Yes
Forced : No
Audio #2
ID : 3
Format : DTS
Format/Info : Digital Theater Systems
Mode : 16
Format settings, Endianness : Big
Codec ID : A_DTS
Duration : 2h 8mn
Bit rate mode : Constant
Bit rate : 1 509 Kbps
Channel(s) : 6 channels
Channel positions : Front: L C R, Side: L R, LFE
Sampling rate : 48.0 KHz
Bit depth : 24 bits
Compression mode : Lossy
Stream size : 1.35 GiB (14%)
Title : Немахов
Language : Russian
Default : No
Forced : No
Audio #3
ID : 4
Format : AC-3
Format/Info : Audio Coding 3
Mode extension : CM (complete main)
Format settings, Endianness : Big
Codec ID : A_AC3
Duration : 2h 8mn
Bit rate mode : Constant
Bit rate : 192 Kbps
Channel(s) : 2 channels
Channel positions : Front: L R
Sampling rate : 48.0 KHz
Compression mode : Lossy
Stream size : 176 MiB (2%)
Title : Карповский
Language : Russian
Default : No
Forced : No
Audio #4
ID : 5
Format : DTS
Format/Info : Digital Theater Systems
Mode : 16
Format settings, Endianness : Big
Codec ID : A_DTS
Duration : 2h 8mn
Bit rate mode : Constant
Bit rate : 1 509 Kbps
Channel(s) : 6 channels
Channel positions : Front: L C R, Side: L R, LFE
Sampling rate : 48.0 KHz
Bit depth : 16 bits
Compression mode : Lossy
Stream size : 1.35 GiB (14%)
Language : English
Default : No
Forced : No
Text #1
ID : 6
Format : UTF-8
Codec ID : S_TEXT/UTF8
Codec ID/Info : UTF-8 Plain Text
Language : Russian
Default : No
Forced : No
Text #2
ID : 7
Format : UTF-8
Codec ID : S_TEXT/UTF8
Codec ID/Info : UTF-8 Plain Text
Language : English
Default : No
Forced : No
Menu
00:00:00.000 : en:"Sometime Ain't Never Now"
00:08:28.549 : en:Willie Stark's School Bond
00:18:50.170 : en:Louisiana Contract Bidding
00:26:03.436 : en:"What I See"
00:36:35.193 : en:"Trying to Say Too Much"
00:43:23.100 : en:Being Used
00:55:10.640 : en:"Nail Em Up"
01:02:39.171 : en:Victory for the Poor
01:11:32.746 : en:Sweet - Talkin
01:18:22.363 : en:Talk of Impeachment
01:24:19.054 : en:Family Visit
01:30:12.907 : en:Visiting Judge Irwin
01:37:48.487 : en:Skates
01:45:25.485 : en:Dig Deeper
01:49:01.326 : en:Anne Stanton
01:56:47.667 : en:Digging
02:01:25.374 : en:Son of a Great Man
xlog
raw [info]: 1280x694p 1:1 @ 24000/1001 fps (cfr)
x264 [info]: using SAR=1/1
x264 [info]: using cpu capabilities: MMX2 SSE2Fast SSSE3 SSE4.2 AVX
x264 [info]: profile High, level 4.1
x264 [info]: frame I:1384 Avg QP:13.61 size:123275
x264 [info]: frame P:35616 Avg QP:15.24 size: 59690
x264 [info]: frame B:147224 Avg QP:17.35 size: 23814
x264 [info]: consecutive B-frames: 1.3% 1.4% 4.7% 12.1% 10.0% 61.5% 6.4% 0.7% 1.8%
x264 [info]: mb I I16..4: 6.7% 80.4% 12.9%
x264 [info]: mb P I16..4: 0.5% 18.7% 1.2% P16..4: 22.7% 30.3% 16.3% 2.4% 0.1% skip: 7.7%
x264 [info]: mb B I16..4: 0.1% 2.4% 0.1% B16..8: 29.3% 24.4% 6.3% direct: 9.1% skip:28.3% L0:42.3% L1:40.1% BI:17.7%
x264 [info]: 8x8 transform intra:90.5% inter:52.9%
x264 [info]: coded y,uvDC,uvAC intra: 93.6% 78.1% 59.0% inter: 39.0% 22.8% 4.1%
x264 [info]: i16 v,h,dc,p: 68% 10% 8% 14%
x264 [info]: i8 v,h,dc,ddl,ddr,vr,hd,vl,hu: 11% 8% 11% 9% 13% 12% 11% 12% 13%
x264 [info]: i4 v,h,dc,ddl,ddr,vr,hd,vl,hu: 16% 7% 9% 8% 14% 13% 12% 10% 11%
x264 [info]: i8c dc,h,v,p: 44% 27% 17% 12%
x264 [info]: Weighted P-Frames: Y:5.2% UV:2.5%
x264 [info]: ref P L0: 39.8% 8.8% 19.6% 7.4% 7.6% 5.1% 5.1% 2.8% 3.3% 0.3% 0.0%
x264 [info]: ref B L0: 72.7% 12.2% 5.7% 3.3% 2.5% 2.0% 1.1% 0.4%
x264 [info]: ref B L1: 93.5% 6.5%
x264 [info]: kb/s:6041.46
encoded 184224 frames, 6.61 fps, 6041.46 kb/s, duration 7:44:33.63
Скриншоты
Скачать

Скачать торрент!

Как скачивать? · Что такое торрент? · Рейтинг и ограничения

Сайт не распространяет и не хранит электронные версии произведений, а лишь предоставляет доступ к создаваемому пользователями каталогу ссылок на торрент-файлы, которые содержат только списки хеш-сумм

[Профиль] [ЛС]
Показать сообщения:    
Ответить на тему

Текущее время: Сегодня 09:56

Часовой пояс: GMT + 4



Вы не можете начинать темы
Вы не можете отвечать на сообщения
Вы не можете редактировать свои сообщения
Вы не можете удалять свои сообщения
Вы не можете голосовать в опросах
Вы не можете прикреплять файлы к сообщениям
Вы не можете скачивать файлы