Оболтусы / Homies (Йон Картхаус / Jon Karthaus) [2015, Нидерланды, комедия, DVDRip] Sub Rus + Original Dut

Ответить на тему
 
Автор Сообщение

user ®

Стаж: 7 лет 7 месяцев

Сообщений: 20008

Пост Пост: #1 от 23-Июн-2015 18:45

[Цитировать]

Оболтусы / Homies
Страна: Нидерланды
Жанр: комедия
Год выпуска: 2015
Продолжительность: 01:36:36
Перевод: Субтитры (М.Васильев)
Cубтитры: русские
Оригинальная аудиодорожка: нидерландский
Режиссер: Йон Картхаус / Jon Karthaus
В ролях: Роберт де Хуг, Гийс Нейбер, Мануэль Брокман, Янник ван де Вельде, Кики ван Дерсен
Описание: Четверо взрослых, но упорно не желающих взрослеть друзей, живут вместе в одной квартире и придумывают разные безумные планы, как бы быстрее заработать много денег. Однажды они переходят дорогу русской мафии и оказываются должны бандитам миллион евро. Если они не найдут деньги за 7 дней, их разрежут на кусочки и скормят акулам в местном океанариуме. Это будет самая безумная неделя в их жизни.
Доп. информация:
Возрастное ограничение: 18 +
Тех. данные рипа - сами видите, какие... Раздаю, что нашел...в ознакомительных целях, так сказать )))
Если кому нужно эталонное качество или желаете взять фильм на озвучку, можете скачать DVD и сами сделать рип.
Сэмпл
КИНОПОИСК
IMDB
Качество видео: DVDRip
Формат видео: AVI
Видео: 2047 Kbps, 720x386 (1.85:1) 23 976 fps, MPEG 4
Аудио: 128 Kbps, 48.0 KHz, 2 ch, MPEG Audio MP 3
Формат субтитров: softsub (SRT)
MediaInfo
General
Complete name : C:\Users\Владелец\Downloads\Homies (2015) DVDrip (xvid) NL Gespr. DMT_\Homies (2015).avi
Format : AVI
Format/Info : Audio Video Interleave
Format profile : OpenDML
File size : 1.48 GiB
Duration : 1h 36mn
Overall bit rate : 2 190 Kbps
Writing application : Lavf52.84.0
Video
ID : 0
Format : MPEG-4 Visual
Format profile : Simple@L1
Format settings, BVOP : No
Format settings, QPel : No
Format settings, GMC : No warppoints
Format settings, Matrix : Default (H.263)
Codec ID : FMP4
Duration : 1h 36mn
Bit rate : 2 047 Kbps
Width : 720 pixels
Height : 386 pixels
Display aspect ratio : 1.85:1
Frame rate : 23.976 fps
Color space : YUV
Chroma subsampling : 4:2:0
Bit depth : 8 bits
Scan type : Progressive
Compression mode : Lossy
Bits/(Pixel*Frame) : 0.307
Stream size : 1.38 GiB (94%)
Writing library : Lavc52.97.0
Audio
ID : 1
Format : MPEG Audio
Format version : Version 1
Format profile : Layer 3
Mode : Joint stereo
Mode extension : MS Stereo
Codec ID : 55
Codec ID/Hint : MP3
Duration : 1h 36mn
Bit rate mode : Constant
Bit rate : 128 Kbps
Channel(s) : 2 channels
Sampling rate : 48.0 KHz
Compression mode : Lossy
Stream size : 88.4 MiB (6%)
Alignment : Aligned on interleaves
Interleave, duration : 24 ms (0.58 video frame)
Скриншот c названием фильма Скриншоты титры
1
00:00:55,880 --> 00:00:58,793
Меня зовут Тимо.
2
00:00:59,160 --> 00:01:03,552
Я расскажу вам про кромешный ад
под названием "моя жизнь".
3
00:01:05,480 --> 00:01:08,393
Тут все очень сложно...
4
00:01:08,560 --> 00:01:11,552
но я постараюсь обьяснить...
начнем с начала...
5
00:02:00,840 --> 00:02:04,470
До того, как начался
весь этот бардак,
6
00:02:04,600 --> 00:02:06,432
у меня была обычная жизнь...
7
00:02:06,600 --> 00:02:09,353
каждый день
был похож на предыдущий.
8
00:02:09,520 --> 00:02:12,751
Вокруг меня одни хипстеры,
9
00:02:13,080 --> 00:02:15,151
которых я ненавижу.
10
00:02:15,280 --> 00:02:17,669
Взрослые люди
не катаются на скейтах.
11
00:02:17,800 --> 00:02:22,351
Чувак, ты, что,
в средней школе? Пора взрослесть.
12
00:02:24,640 --> 00:02:28,349
У меня свой бизнес
в интернете.
13
00:02:29,520 --> 00:02:35,038
Иметь свой бизнес круто.
Ты делаешь то, что хочешь.
14
00:02:36,400 --> 00:02:40,519
Но пока он не приносит дохода,
я зарабатываю на жизнь
15
00:02:40,640 --> 00:02:42,153
другим способом.
16
00:02:42,360 --> 00:02:44,237
Эй...
17
00:02:44,400 --> 00:02:49,190
это мышь, а не телефон.
18
00:02:49,360 --> 00:02:52,193
Да, мне пока далеко
до Стива Джобса,
19
00:02:52,360 --> 00:02:56,194
но меня все устраивает,
и эти старички такие милые.
20
00:02:56,320 --> 00:02:59,551
Сейчас моя компания разрабатывает
новое приложение для мобильника.
21
00:02:59,720 --> 00:03:05,238
Это мои программисты.
Они все дрочат на фэнтези и японские мультики.
22
00:03:05,400 --> 00:03:08,438
- А твоя мама возбуждается на Гэндальфа!
- Иди в жопу.
23
00:03:08,600 --> 00:03:10,352
Почему не поехал на КОМИКФЭСТ?
24
00:03:10,520 --> 00:03:13,160
- Мама не отпустила.
- Она тебе запретила?
25
00:03:13,280 --> 00:03:15,351
Да, после того,
что было год назад.
Скачать

Скачать торрент!

Как скачивать? · Что такое торрент? · Рейтинг и ограничения

Сайт не распространяет и не хранит электронные версии произведений, а лишь предоставляет доступ к создаваемому пользователями каталогу ссылок на торрент-файлы, которые содержат только списки хеш-сумм

[Профиль] [ЛС]
Показать сообщения:    
Ответить на тему

Текущее время: Сегодня 14:12

Часовой пояс: GMT + 4



Вы не можете начинать темы
Вы не можете отвечать на сообщения
Вы не можете редактировать свои сообщения
Вы не можете удалять свои сообщения
Вы не можете голосовать в опросах
Вы не можете прикреплять файлы к сообщениям
Вы не можете скачивать файлы