Призрак дома на холме / The Haunting (Ян Де Бонт / Jan De Bont) [1999, США, ужасы, фэнтези, триллер, детектив, DTheater 1080i] 2x DVO + 2x AVO (Визгунов, Володарский) + Sub Rus, Eng + Original Eng

Ответить на тему
 
Автор Сообщение

user ®

Стаж: 7 лет 7 месяцев

Сообщений: 20008

Пост Пост: #1 от 23-Июн-2015 00:12

[Цитировать]

Призрак дома на холме / The Haunting / DTheater
Страна: США
Студия: DreamWorks SKG
Жанр: ужасы, фэнтези, триллер, детектив
Год выпуска: 1999
Продолжительность: 01:57:51
Перевод 1: Профессиональный (двухголосый закадровый)
Перевод 2: Профессиональный (двухголосый закадровый) Премьер Видео Фильм
Перевод 3: Авторский (одноголосый закадровый) Сергей Визгунов
Перевод 4: Авторский (одноголосый закадровый) Леонид Володарский
Cубтитры: русские, английские
Оригинальная аудиодорожка: английский
Режиссер: Ян Де Бонт / Jan De Bont
В ролях: Лили Тэйлор /Lili Taylor/, Вирджиния Мэдсен /Virginia Madsen/, Лиам Нисон /Liam Neeson/, Мэриэн Селдес /Marian Seldes/, Аликс Коромзай /Alix Koromzay/, Тодд Филд /Todd Field/, Оуэн Уилсон /Owen Wilson/, Брюс Дерн /Bruce Dern/, Майкл Кэвэно /Michael Cavanaugh/, Кэтрин Зита-Джоунс /Catherine Zeta-Jones/, Том Ирвин /Tom Irwin/
"
Описание: По готическому роману Ширли Джексон "Призрак дома на холме" ("Haunting of Hill House, The").
Элеонора (Лили Тэйлор), которую сестра (Мэдсен) собирается выгнать из дома, соглашается принять участие в эксперименте, связанном с изучением природы страха. Участникам объявили, что речь пойдет о проблемах бессонницы. Платили за это с жильем и питанием 900 долларов в месяц, и вскоре Элеонора уже осматривалась в жутковатом готическом замке, ворота в который охранял мрачноватый мистер Дадли (Брюс Дерн). Затем она познакомилась с миссис Дадли, которая открыла ей дверь в кухню, сжимая в руке блестящий нож для рубки мяса. После этого было приятное знакомство с Тео (Зита-Джоунс). Вместе они продолжают с восторгом изучать жутковатый дом с множеством хитроумных устройств, залов и коридоров, украшенных различными фигурами, и сталкиваются еще с одним участником эксперимента Люком Сэндерсом. Потом прибывает и доктор Мэрроу (Лайэм Нисон), руководитель, его помощница Мэриэтт Ламбетта и некто Тодд. Доктор Мэрроу рассказывает историю дома, построенного хлопковым магнатом Хью Крэйном 130 лет назад для красавицы-жены. Он хотел, чтобы будущим детям дом напоминал сказку. Но все дети умирали при рождении, при очередных родах умерла и жена. Крэйн, однако, продолжал пристраивать комнату за комнатой, и среди местных стали ходить слухи, что из дома доносятся крики детей. Когда появились экспериментаторы, дом стал подавать признаки жизни, и надо сказать, весьма неприятные. Сам того не зная, доктор Мэрроу выбрал дом, населенный призраками… Хороший ужастик с потрясающими спецэффектами порадует любителей жанра. (Иванов М.)"
Доп. информация: Озвучки № 1, 3, 4 взяты тут [url=http://***/forum/viewtopic.php?t=5000843]http://***/forum/viewtopic.php?t=5000843[/url]
За озвучку "Премьер Видео Фильм" спасибо team_6strun
Сэмпл: https://yadi.sk/i/NVZ9nsFzhNQ5M
Тип релиза: DTheater 1080i
Контейнер: MKV
Видео: 1920x1080 (16:9), 29.970 fps, MPEG-2, 22982 Kbps
Аудио 1: Russian - 48 kHz, AC3 Dolby Digital, Front: L C R, Side: L R, LFE, ~ 448 kbps - DVO
Аудио 2: Russian - 48 kHz, AC3 2/0 (L,R) ch, ~224 kbps - Премьер Видео Фильм
Аудио 3: Russian - 48 kHz, AC3 2/0 (L,R) ch, ~192 kbps - Сергей Визгунов
Аудио 4: Russian - 48 kHz, AC3 Dolby Digital, Front: L C R, Side: L R, LFE, ~ 384 kbps - Леонид Володарский
Аудио 5: English - 48 kHz, AC3 Dolby Digital, Front: L C R, Side: L R, LFE, ~ 576 kbps
Формат субтитров: softsub (SRT)
MediaInfo
General
Unique ID : 196474226264781177374951104021528316677 (0x93CF8F3FBDC7DA55B7FCE1AAE95C0B05)
Complete name : C:\Users\Максим\Desktop\The Haunting 1999 Dtheater 1080i DD5.1\The Haunting 1999 Dtheater 1080i DD5.1.mkv
Format : Matroska
Format version : Version 4 / Version 2
File size : 19.9 GiB
Duration : 1h 57mn
Overall bit rate mode : Variable
Overall bit rate : 24.1 Mbps
Encoded date : UTC 2015-06-20 15:17:57
Writing application : mkvmerge v8.0.0 ('Til The Day That I Die') 64bit
Writing library : libebml v1.3.1 + libmatroska v1.4.2
DURATION : 01:44:51.250000000
NUMBER_OF_FRAMES : 1168
NUMBER_OF_BYTES : 41085
_STATISTICS_WRITING_APP : mkvmerge v8.0.0 ('Til The Day That I Die') 64bit
_STATISTICS_WRITING_DATE_UTC : 2015-06-20 15:17:57
_STATISTICS_TAGS : BPS DURATION NUMBER_OF_FRAMES NUMBER_OF_BYTES
Video
ID : 1
Format : MPEG Video
Format version : Version 2
Format profile : Main@High
Format settings, BVOP : Yes
Format settings, Matrix : Custom
Format settings, GOP : M=3, N=12
Format settings, picture structure : Frame
Codec ID : V_MPEG2
Codec ID/Info : MPEG 1 or 2 Video
Bit rate mode : Variable
Bit rate : 21.8 Mbps
Maximum bit rate : 45.0 Mbps
Width : 1 920 pixels
Height : 1 080 pixels
Display aspect ratio : 16:9
Frame rate mode : Variable
Original frame rate : 29.970 fps
Standard : Component
Color space : YUV
Chroma subsampling : 4:2:0
Bit depth : 8 bits
Scan type : Interlaced
Scan order : Top Field First
Compression mode : Lossy
Time code of first frame : 02:25:49;04
Time code source : Group of pictures header
GOP, Open/Closed : Open
Default : Yes
Forced : No
Color primaries : BT.709
Transfer characteristics : BT.709
Matrix coefficients : BT.709
Audio #1
ID : 2
Format : AC-3
Format/Info : Audio Coding 3
Mode extension : CM (complete main)
Format settings, Endianness : Big
Codec ID : A_AC3
Duration : 1h 57mn
Bit rate mode : Constant
Bit rate : 448 Kbps
Channel(s) : 6 channels
Channel positions : Front: L C R, Side: L R, LFE
Sampling rate : 48.0 KHz
Compression mode : Lossy
Stream size : 378 MiB (2%)
Title : MVO
Language : Russian
Default : Yes
Forced : No
Audio #2
ID : 3
Format : AC-3
Format/Info : Audio Coding 3
Mode extension : CM (complete main)
Format settings, Endianness : Big
Codec ID : A_AC3
Duration : 1h 57mn
Bit rate mode : Constant
Bit rate : 224 Kbps
Channel(s) : 2 channels
Channel positions : Front: L R
Sampling rate : 48.0 KHz
Compression mode : Lossy
Stream size : 189 MiB (1%)
Title : Премьер Видео Фильм
Language : Russian
Default : No
Forced : No
Audio #3
ID : 4
Format : AC-3
Format/Info : Audio Coding 3
Mode extension : CM (complete main)
Format settings, Endianness : Big
Codec ID : A_AC3
Duration : 1h 57mn
Bit rate mode : Constant
Bit rate : 192 Kbps
Channel(s) : 2 channels
Channel positions : Front: L R
Sampling rate : 44.1 KHz
Compression mode : Lossy
Stream size : 162 MiB (1%)
Title : А.Визгунов
Language : Russian
Default : No
Forced : No
Audio #4
ID : 5
Format : AC-3
Format/Info : Audio Coding 3
Mode extension : CM (complete main)
Format settings, Endianness : Big
Codec ID : A_AC3
Duration : 1h 57mn
Bit rate mode : Constant
Bit rate : 384 Kbps
Channel(s) : 6 channels
Channel positions : Front: L C R, Side: L R, LFE
Sampling rate : 48.0 KHz
Compression mode : Lossy
Stream size : 324 MiB (2%)
Title : Л.Володарский
Language : Russian
Default : No
Forced : No
Audio #5
ID : 6
Format : AC-3
Format/Info : Audio Coding 3
Mode extension : CM (complete main)
Format settings, Endianness : Big
Codec ID : A_AC3
Duration : 1h 57mn
Bit rate mode : Constant
Bit rate : 576 Kbps
Channel(s) : 6 channels
Channel positions : Front: L C R, Side: L R, LFE
Sampling rate : 48.0 KHz
Compression mode : Lossy
Stream size : 486 MiB (2%)
Language : English
Default : No
Forced : No
Text #1
ID : 7
Format : UTF-8
Codec ID : S_TEXT/UTF8
Codec ID/Info : UTF-8 Plain Text
Language : Russian
Default : No
Forced : No
Text #2
ID : 8
Format : UTF-8
Codec ID : S_TEXT/UTF8
Codec ID/Info : UTF-8 Plain Text
Language : English
Default : No
Forced : No
Скриншоты
Скачать

Скачать торрент!

Как скачивать? · Что такое торрент? · Рейтинг и ограничения

Сайт не распространяет и не хранит электронные версии произведений, а лишь предоставляет доступ к создаваемому пользователями каталогу ссылок на торрент-файлы, которые содержат только списки хеш-сумм

[Профиль] [ЛС]
Показать сообщения:    
Ответить на тему

Текущее время: Сегодня 06:09

Часовой пояс: GMT + 4



Вы не можете начинать темы
Вы не можете отвечать на сообщения
Вы не можете редактировать свои сообщения
Вы не можете удалять свои сообщения
Вы не можете голосовать в опросах
Вы не можете прикреплять файлы к сообщениям
Вы не можете скачивать файлы