Второй шанс / Danny Collins (Дэн Фогельман / Dan Fogelman) [2015, США, драма, BDRip 1080p] Dub (iTunes) + Sub Eng + Original Eng

Ответить на тему
 
Автор Сообщение

user ®

Стаж: 7 лет 7 месяцев

Сообщений: 20008

Пост Пост: #1 от 23-Июн-2015 00:12

[Цитировать]

Второй шанс / Danny Collins
Страна: США
Студия: Big Indie Pictures
Жанр: драма
Год выпуска: 2015
Продолжительность: 01:47:10
Перевод: Профессиональный (дублированный) iTunes
Cубтитры: английские
Оригинальная аудиодорожка: английский
Режиссер: Дэн Фогельман / Dan Fogelman
В ролях: Аль Пачино, Аннетт Бенинг, Дженнифер Гарнер, Бобби Каннавале, Кристофер Пламмер, Мелисса Бенойст, Ник Офферман, Джош Пек, Арти Манн, Катарина Час
Описание: Когда-то песни Дэнни Коллинза обожал весь мир. Однако уже много лет он ничего не пишет, почивая на лаврах былой славы. Но однажды музыканта находит адресованное ему много лет назад письмо от …Джона Леннона. И это переворачивает всю его жизнь.

Тип релиза: BDRip 1080p
Контейнер: MKV
Видео: MPEG-4 AVC, 14.8 Mбит/с, 1920x800, 23,976 fps
Аудио: Rus, AC3, 384 kb/s (6 ch), 48 kHz
Аудио 2: Eng, DTS, 1510 kb/s (6 ch), 48 kHz
Формат субтитров: softsub (SRT)
MediaInfo
Format : Matroska
Format version : Version 2
File size : 12.7 GiB
Duration : 1h 47mn
Overall bit rate : 17.0 Mbps
Movie name : Danny Collins 2015
Encoded date : UTC 2015-06-21 19:53:28
Writing application : mkvmerge v7.9.0 ('Birds') 64bit
Writing library : libebml v1.3.1 + libmatroska v1.4.2
Video
ID : 1
Format : AVC
Format/Info : Advanced Video Codec
Format profile : High@L4.1
Format settings, CABAC : Yes
Format settings, ReFrames : 5 frames
Codec ID : V_MPEG4/ISO/AVC
Bit rate : 14.8 Mbps
Width : 1 920 pixels
Height : 800 pixels
Display aspect ratio : 2.40:1
Frame rate mode : Variable
Original frame rate : 23.976 fps
Color space : YUV
Chroma subsampling : 4:2:0
Bit depth : 8 bits
Scan type : Progressive
Title : Danny Collins 2015
Writing library : x264 core 146 r2538 121396c
Encoding settings : cabac=1 / ref=5 / deblock=1:-3:-3 / analyse=0x3:0x33 / me=umh / subme=11 / psy=1 / psy_rd=1.00:0.00 / mixed_ref=1 / me_range=32 / chroma_me=1 / trellis=2 / 8x8dct=1 / cqm=0 / deadzone=21,11 / fast_pskip=0 / chroma_qp_offset=-2 / threads=12 / lookahead_threads=2 / sliced_threads=0 / nr=0 / decimate=0 / interlaced=0 / bluray_compat=0 / constrained_intra=0 / bframes=9 / b_pyramid=2 / b_adapt=2 / b_bias=0 / direct=1 / weightb=1 / open_gop=0 / weightp=2 / keyint=240 / keyint_min=23 / scenecut=40 / intra_refresh=0 / rc=crf / mbtree=0 / crf=17.5 / qcomp=0.60 / qpmin=0 / qpmax=69 / qpstep=4 / ip_ratio=1.40 / pb_ratio=1.30 / aq=3:0.90
Language : English
Default : Yes
Forced : No
Audio #1
ID : 2
Format : AC-3
Format/Info : Audio Coding 3
Mode extension : CM (complete main)
Format settings, Endianness : Big
Codec ID : A_AC3
Duration : 1h 47mn
Bit rate mode : Constant
Bit rate : 384 Kbps
Channel(s) : 6 channels
Channel positions : Front: L C R, Side: L R, LFE
Sampling rate : 48.0 KHz
Bit depth : 16 bits
Compression mode : Lossy
Stream size : 294 MiB (2%)
Language : Russian
Default : Yes
Forced : No
Audio #2
ID : 3
Format : DTS
Format/Info : Digital Theater Systems
Mode : 16
Format settings, Endianness : Big
Codec ID : A_DTS
Duration : 1h 47mn
Bit rate mode : Constant
Bit rate : 1 509 Kbps
Channel(s) : 6 channels
Channel positions : Front: L C R, Side: L R, LFE
Sampling rate : 48.0 KHz
Bit depth : 24 bits
Compression mode : Lossy
Stream size : 1.13 GiB (9%)
Language : English
Default : No
Forced : No
Text #1
ID : 4
Format : UTF-8
Codec ID : S_TEXT/UTF8
Codec ID/Info : UTF-8 Plain Text
Language : English
Default : No
Forced : No
Text #2
ID : 5
Format : UTF-8
Codec ID : S_TEXT/UTF8
Codec ID/Info : UTF-8 Plain Text
Title : SDH
Language : English
Default : No
Forced : No
Menu
00:00:00.000 : en:00:00:00.000
00:03:55.944 : en:00:03:55.944
00:11:27.437 : en:00:11:27.437
00:16:10.428 : en:00:16:10.428
00:19:58.656 : en:00:19:58.656
00:24:40.646 : en:00:24:40.646
00:29:53.375 : en:00:29:53.375
00:36:10.335 : en:00:36:10.335
00:40:14.370 : en:00:40:14.370
00:44:05.518 : en:00:44:05.518
00:49:00.813 : en:00:49:00.813
00:55:55.477 : en:00:55:55.477
01:02:47.514 : en:01:02:47.514
01:07:23.498 : en:01:07:23.498
01:14:47.650 : en:01:14:47.650
01:20:12.850 : en:01:20:12.850
01:25:11.773 : en:01:25:11.773
01:30:40.393 : en:01:30:40.393
01:36:00.838 : en:01:36:00.838
01:41:24.829 : en:01:41:24.829
Скриншоты
Скачать

Скачать торрент!

Как скачивать? · Что такое торрент? · Рейтинг и ограничения

Сайт не распространяет и не хранит электронные версии произведений, а лишь предоставляет доступ к создаваемому пользователями каталогу ссылок на торрент-файлы, которые содержат только списки хеш-сумм

[Профиль] [ЛС]
Показать сообщения:    
Ответить на тему

Текущее время: Сегодня 18:34

Часовой пояс: GMT + 4



Вы не можете начинать темы
Вы не можете отвечать на сообщения
Вы не можете редактировать свои сообщения
Вы не можете удалять свои сообщения
Вы не можете голосовать в опросах
Вы не можете прикреплять файлы к сообщениям
Вы не можете скачивать файлы