Меч дракона / Dragon Blade / Tian jiang xiong shi (Дэниэл Ли / Daniel Lee) [2015, Китай, боевик, драма, приключения, HDRip] DVO

Ответить на тему
 
Автор Сообщение

user ®

Стаж: 13 лет

Сообщений: 15071

Пост Пост: #1 от 21-Июн-2015 20:15

[Цитировать]

Меч дракона / Dragon Blade / Tian jiang xiong shi
Страна: Китай
Жанр: боевик, драма, приключения
Год выпуска: 2015
Продолжительность: 02:07:09
Перевод: Любительский (двухголосый закадровый) [Студия Пиратского дубляжа]
Оригинальная аудиодорожка: нет
Cубтитры:нет
Режиссер: Дэниэл Ли / Daniel Lee
В ролях:Джеки Чан, Джон Кьюсак, Эдриан Броуди, Шарни Винсон, Линь Пэн, Бенни Уркидез, Чхве Ши Вон, Темур Мамисашвили, Томер Оз, Кевин Ли
Описание:Действие фильма разворачивается в Древнем Китае во времена правления династии Хань. Римский полководец Луций с легионом своих солдат оказывается на территории Китая. В это же время командир отряда охраны Западного региона Хо Ань в результате предательства своих врагов становится рабом. И этим двум воинам было суждено встретиться в Западной пустыне, где развернётся эпическое сражение. Однако биться они будут не друг против друга, как можно было бы подумать, а против алчного императора Тиберия за суверенитет Китая.
Релиз:

Качество: HDRip
Контейнер: AVI
Видео: 720x304 (2.37:1), 24 fps, XviD build 50 ~1257 kbps avg, 0.24 bit/pixel
Аудио: 48 kHz, AC3 Dolby Digital, 2/0 (L,R) ch, ~384 kbps

MI
Общее
Полное имя : D:\Мои рипы\Меч дракона_1400_HDRip_Некул.avi
Формат : AVI
Формат/Информация : Audio Video Interleave
Размер файла : 1,47 Гбайт
Продолжительность : 2 ч. 7 м.
Общий поток : 1651 Кбит/сек
Программа кодирования : VirtualDubMod 1.5.10.3 | www.virtualdub-fr.org || (build 2550/release)
Библиотека кодирования : VirtualDubMod build 2550/release
Видео
Идентификатор : 0
Формат : MPEG-4 Visual
Профиль формата : Advanced Simple@L5
Параметр BVOP формата : 1
Параметр QPel формата : Нет
Параметр GMC формата : Без точки перехода
Параметр матрицы формата : Default (MPEG)
Идентификатор кодека : XVID
Идентификатор кодека/Подсказка : XviD
Продолжительность : 2 ч. 7 м.
Битрейт : 1258 Кбит/сек
Ширина : 720 пикселей
Высота : 304 пикселя
Соотношение сторон : 2,35:1
Частота кадров : 24,000 кадра/сек
Цветовое пространство : YUV
Субдискретизация насыщенности : 4:2:0
Битовая глубина : 8 бит
Тип развёртки : Прогрессивная
Метод сжатия : С потерями
Бит/(Пиксели*Кадры) : 0.239
Размер потока : 1,12 Гбайт (76%)
Библиотека кодирования : XviD 1.2.1 (UTC 2008-12-04)
Аудио
Идентификатор : 1
Формат : AC-3
Формат/Информация : Audio Coding 3
Расширение режима : CM (complete main)
Параметр Endianness формата : Big
Идентификатор кодека : 2000
Продолжительность : 2 ч. 7 м.
Вид битрейта : Постоянный
Битрейт : 384 Кбит/сек
Каналы : 2 канала
Расположение каналов : Front: L R
Частота : 48,0 КГц
Битовая глубина : 16 бит
Метод сжатия : С потерями
Размер потока : 349 Мбайт (23%)
Выравнивание : Разделение по промежуткам
Продолжительность промежутка : 42 мс. (1,00 видеокадр)
Время предзагрузки промежутка : 500 мс.
Скриншоты
Скачать

Скачать торрент! Меч дракона / Dragon Blade / Tian jiang xiong shi (Дэниэл Ли / Daniel Lee) [2015, Китай, боевик, драма, приключения, HDRip] DVO

Как скачивать? · Что такое торрент? · Рейтинг и ограничения

Сайт не распространяет и не хранит электронные версии произведений, а лишь предоставляет доступ к создаваемому пользователями каталогу ссылок на торрент-файлы, которые содержат только списки хеш-сумм

[Профиль] [ЛС]
Показать сообщения:    
Ответить на тему

Текущее время: Сегодня 20:56

Часовой пояс: GMT + 4



Вы не можете начинать темы
Вы не можете отвечать на сообщения
Вы не можете редактировать свои сообщения
Вы не можете удалять свои сообщения
Вы не можете голосовать в опросах
Вы не можете прикреплять файлы к сообщениям
Вы не можете скачивать файлы