Скуби-Ду: Франкен-монстр / Scooby-Doo! Frankencreepy (Пол МакЭвой / Paul McEvoy) [2014, мультфильм, приключения, семейный, BDRip] MVO

Ответить на тему
 
Автор Сообщение

user ®

Стаж: 11 лет

Сообщений: 15145

Пост Пост: #1 от 20-Июн-2015 16:24

[Цитировать]

Скуби-Ду: Франкен-монстр
Scooby-Doo! Frankencreepy
Страна: США
Жанр: мультфильм, приключения, семейный
Продолжительность: 01:13:54
Год выпуска: 2014-Перевод: Профессиональный (Многоголосый закадровый)
Русские субтитры: нет
Режиссёр: Пол МакЭвой / Paul McEvoy-Роли озвучивали: Фрэнк Уэлкер, Минди Кон, Грэй Гриффин, Мэттью Лиллард, Дидрих Бадер, Ди Брэдли Бейкер, Эрик Бауза, Джефф Беннетт, Сьюзан Блэйксли, Кори Бертон-Описание: Компания друзей узнаёт, что их злобные враги, которых они так долго сажали в тюрьму, вышли и объединились, теперь им нужно скрыться на время. И вот, друзья снова в своем небольшом фургоне и на всех парах едут в Пенсильванию. Прибыв туда, они решаются остановиться в замке.. Но пока друзья думали о том, какой им план разработать по собственному спасению, Скуби и Шегги уже в новые неприятности влипли.-Релиз: | | -• Работа со звуком [url=http://***/forum/profile.php?mode=viewprofile&u=1793838]xfiles[/url]
• Работа с BDRemux'ом [url=http://***/forum/profile.php?mode=viewprofile&u=6758562]-Azureus-[/url]-Качество: [url=http://***/forum/viewtopic.php?t=5026105]BDRip[/url]
Формат: AVI
Видео: 688x384 (1.79:1), 23,976 fps, XviD 66 ~1 275 kbps avg, 0.20 bit/pixel
Аудио: 48.0 kHz, MPEG Layer 3, 2/0 (L,R) ch, ~128 kbps
Субтитры: отсутствуют

MI

General
Complete name : D:\incarcare\rip gata\Scooby-Doo!Frankencreepy.2014.BDRip.avi
Format : AVI
Format/Info : Audio Video Interleave
File size : 746 MiB
Duration : 1h 13mn
Overall bit rate : 1 412 Kbps
Writing application : VirtualDubMod 1.5.10.2 (build 2540/release)
Writing library : VirtualDubMod build 2540/release
Video
ID : 0
Format : MPEG-4 Visual
Format profile : Advanced Simple@L5
Format settings, BVOP : 1
Format settings, QPel : No
Format settings, GMC : No warppoints
Format settings, Matrix : Custom
Codec ID : XVID
Codec ID/Hint : XviD
Duration : 1h 13mn
Bit rate : 1 275 Kbps
Width : 688 pixels
Height : 384 pixels
Display aspect ratio : 16:9
Frame rate : 23.976 fps
Color space : YUV
Chroma subsampling : 4:2:0
Bit depth : 8 bits
Scan type : Progressive
Compression mode : Lossy
Bits/(Pixel*Frame) : 0.201
Stream size : 674 MiB (90%)
Writing library : XviD 66
Audio
ID : 1
Format : MPEG Audio
Format version : Version 1
Format profile : Layer 3
Codec ID : 55
Codec ID/Hint : MP3
Duration : 1h 13mn
Bit rate mode : Constant
Bit rate : 128 Kbps
Channel(s) : 2 channels
Sampling rate : 48.0 KHz
Compression mode : Lossy
Stream size : 67.6 MiB (9%)
Alignment : Aligned on interleaves
Interleave, duration : 42 ms (1.00 video frame)
Interleave, preload duratio : 504 ms
Скриншоты
Скачать

Скачать торрент! Скуби-Ду: Франкен-монстр / Scooby-Doo! Frankencreepy (Пол МакЭвой / Paul McEvoy) [2014, мультфильм, приключения, семейный, BDRip] MVO

Как скачивать? · Что такое торрент? · Рейтинг и ограничения

Сайт не распространяет и не хранит электронные версии произведений, а лишь предоставляет доступ к создаваемому пользователями каталогу ссылок на торрент-файлы, которые содержат только списки хеш-сумм

[Профиль] [ЛС]
Показать сообщения:    
Ответить на тему

Текущее время: Сегодня 18:21

Часовой пояс: GMT + 4



Вы не можете начинать темы
Вы не можете отвечать на сообщения
Вы не можете редактировать свои сообщения
Вы не можете удалять свои сообщения
Вы не можете голосовать в опросах
Вы не можете прикреплять файлы к сообщениям
Вы не можете скачивать файлы