Путешествие хора / Choir Tour (Эдмундс Янсонс / Edmunds Jansons) [2012, мультфильм, WEBRip-AVC]

Ответить на тему
 
Автор Сообщение

user ®

Стаж: 7 лет 7 месяцев

Сообщений: 20008

Пост Пост: #1 от 20-Июн-2015 10:12

[Цитировать]

Путешествие хора / Choir Tour
Страна: Латвия
Жанр: мультфильм
Продолжительность: 00:05:15
Год выпуска: 2012
Перевод: не требуется
Русские субтитры: нет
Режиссёр: Эдмундс Янсонс / Edmunds Jansons
Описание: На междугородний конкурс едет хор мальчиков под присмотром строгой воспитательницы. Но где уж старой деве уследить за этими ребятами...
Доп. информация: 15 фестивальных наград
Качество: WEBRip-AVC
Формат: MP4
Видео: 2450 kbps, 1280х720 (16:9), 25.000 fps, AVC (High@L3.1)
Аудио: 158 kbps, 44.1 kHz, 2 channels, AAC (LC)
Субтитры: отсутствуют
Подробные технические данные
General
Complete name : Choir Tour (2012).mp4
Format : MPEG-4
Format profile : Base Media
Codec ID : isom
File size : 98.3 MiB
Duration : 5mn 15s
Overall bit rate mode : Variable
Overall bit rate : 2 610 Kbps
Encoded date : UTC 2012-06-18 21:29:23
Tagged date : UTC 2012-06-19 21:29:24
Video
ID : 1
Format : AVC
Format/Info : Advanced Video Codec
Format profile : High@L3.1
Format settings, CABAC : Yes
Format settings, ReFrames : 4 frames
Codec ID : avc1
Codec ID/Info : Advanced Video Coding
Duration : 5mn 15s
Bit rate : 2 450 Kbps
Maximum bit rate : 8 470 Kbps
Width : 1 280 pixels
Height : 720 pixels
Display aspect ratio : 16:9
Frame rate mode : Constant
Frame rate : 25.000 fps
Color space : YUV
Chroma subsampling : 4:2:0
Bit depth : 8 bits
Scan type : Progressive
Bits/(Pixel*Frame) : 0.106
Stream size : 92.2 MiB (94%)
Writing library : Vimeo Encoder
Encoded date : UTC 2012-06-18 21:29:23
Tagged date : UTC 2012-06-18 21:29:24
Audio
ID : 2
Format : AAC
Format/Info : Advanced Audio Codec
Format profile : LC
Codec ID : 40
Duration : 5mn 15s
Bit rate mode : Variable
Bit rate : 158 Kbps
Maximum bit rate : 201 Kbps
Channel(s) : 2 channels
Channel positions : Front: L R
Sampling rate : 44.1 KHz
Compression mode : Lossy
Stream size : 5.93 MiB (6%)
Encoded date : UTC 2012-06-18 21:29:24
Tagged date : UTC 2012-06-18 21:29:24
Скриншоты
Скачать

Скачать торрент!

Как скачивать? · Что такое торрент? · Рейтинг и ограничения

Сайт не распространяет и не хранит электронные версии произведений, а лишь предоставляет доступ к создаваемому пользователями каталогу ссылок на торрент-файлы, которые содержат только списки хеш-сумм

[Профиль] [ЛС]
Показать сообщения:    
Ответить на тему

Текущее время: Сегодня 15:34

Часовой пояс: GMT + 4



Вы не можете начинать темы
Вы не можете отвечать на сообщения
Вы не можете редактировать свои сообщения
Вы не можете удалять свои сообщения
Вы не можете голосовать в опросах
Вы не можете прикреплять файлы к сообщениям
Вы не можете скачивать файлы