Пришествие Дьявола / Devil\'s Due (Мэттью Беттинелли, Тайлер Джиллетт / Matt Bettinelli-Olpin, Tyler Gillett) [2014, США, ужасы, детектив, BDRip 720p] Dub + Sub Rus, Eng + Original Eng

Ответить на тему
 
Автор Сообщение

user ®

Стаж: 7 лет 7 месяцев

Сообщений: 20008

Пост Пост: #1 от 19-Июн-2015 21:51

[Цитировать]

Пришествие Дьявола / Devil's Due
Страна: США
Студия: 20th Century Fox Film Corporation / Davis Entertainment / TSG Entertainment
Жанр: ужасы, детектив
Год выпуска: 2014
Продолжительность: 01:29:01
Перевод: Профессиональный (дублированный) Blu-ray CEE
Cубтитры: русские, английские
Оригинальная аудиодорожка: английский
Режиссер: Мэттью Беттинелли, Тайлер Джиллетт / Matt Bettinelli-Olpin, Tyler Gillett
В ролях: Эллисон Миллер, Зак Гилфорд, Сэм Андерсон, Роджер Пейано, Ванесса Рэй, Билл Мартин Уильямс, Джеральдин Сингер, Джулия Дентон Френсис, Колин Уолкер, Мэдисон Вульф
Описание: После странной ночи во время их медового месяца молодожены сталкиваются с проблемой незапланированной беременности. Постепенно муж начинает замечать необычные изменения в поведении жены, поначалу они списывают это на нервы, но по прошествии нескольких месяцев становится очевидным, что перемены в ее теле и разуме имеют более зловещее происхождение…

Сэмпл: http://multi-up.com/1054393
Тип релиза: BDRip 720p [CtrlHD]
Контейнер: MKV
Видео: MPEG4 Video (H264) 1280x690 23.976fps 6 000 Kbps
Аудио: Russian DTS / 6 ch / 48.0 KHz / 768 Kbps
Аудио 2: English DTS / 6 ch / 48.0 KHz / 1 509 Kbps
Формат субтитров: softsub (SRT)

MediaInfo
General
Unique ID : 199898499490292352522195041179996454696 (0x96630CF429EB1E5CAD25590F5C2AFF28)
Complete name : C:\Users\Вика\Desktop\Devil's.Due.2014.720p.BDRip.mkv
Format : Matroska
Format version : Version 4 / Version 2
File size : 5.15 GiB
Duration : 1h 29mn
Overall bit rate : 8 277 Kbps
Encoded date : UTC 2015-06-19 06:39:55
Writing application : mkvmerge v7.4.0 ('Circles') 64bit built on Dec 12 2014 12:19:56
Writing library : libebml v1.3.0 + libmatroska v1.4.1
DURATION : 01:28:15.415000000
NUMBER_OF_FRAMES : 1136
NUMBER_OF_BYTES : 48218
_STATISTICS_WRITING_APP : mkvmerge v7.4.0 ('Circles') 64bit built on Dec 12 2014 12:19:56
_STATISTICS_WRITING_DATE_UTC : 2015-06-19 06:39:55
_STATISTICS_TAGS : BPS DURATION NUMBER_OF_FRAMES NUMBER_OF_BYTES
Video
ID : 1
Format : AVC
Format/Info : Advanced Video Codec
Format profile : High@L4.1
Format settings, CABAC : Yes
Format settings, ReFrames : 9 frames
Codec ID : V_MPEG4/ISO/AVC
Duration : 1h 29mn
Bit rate : 6 000 Kbps
Width : 1 280 pixels
Height : 690 pixels
Display aspect ratio : 1.85:1
Frame rate mode : Constant
Frame rate : 23.976 fps
Color space : YUV
Chroma subsampling : 4:2:0
Bit depth : 8 bits
Scan type : Progressive
Bits/(Pixel*Frame) : 0.283
Stream size : 3.63 GiB (71%)
Writing library : x264 core 133 r2334 a3ac64b
Encoding settings : cabac=1 / ref=9 / deblock=1:-3:-3 / analyse=0x3:0x113 / me=tesa / subme=11 / psy=1 / psy_rd=1.10:0.00 / mixed_ref=1 / me_range=32 / chroma_me=1 / trellis=2 / 8x8dct=1 / cqm=0 / deadzone=21,11 / fast_pskip=0 / chroma_qp_offset=-4 / threads=12 / lookahead_threads=2 / sliced_threads=0 / nr=0 / decimate=0 / interlaced=0 / bluray_compat=0 / constrained_intra=0 / bframes=8 / b_pyramid=2 / b_adapt=2 / b_bias=0 / direct=3 / weightb=1 / open_gop=0 / weightp=2 / keyint=250 / keyint_min=23 / scenecut=40 / intra_refresh=0 / rc=2pass / mbtree=0 / bitrate=6000 / ratetol=1.0 / qcomp=0.65 / qpmin=0 / qpmax=69 / qpstep=4 / cplxblur=20.0 / qblur=0.5 / ip_ratio=1.20 / pb_ratio=1.30 / aq=1:0.85
Language : English
Default : Yes
Forced : No
DURATION : 01:29:01.336000000
NUMBER_OF_FRAMES : 128064
NUMBER_OF_BYTES : 4003782236
_STATISTICS_WRITING_APP : mkvmerge v7.4.0 ('Circles') 64bit built on Dec 12 2014 12:19:56
_STATISTICS_WRITING_DATE_UTC : 2015-06-19 06:39:55
_STATISTICS_TAGS : BPS DURATION NUMBER_OF_FRAMES NUMBER_OF_BYTES
Audio #1
ID : 2
Format : DTS
Format/Info : Digital Theater Systems
Mode : 16
Format settings, Endianness : Big
Codec ID : A_DTS
Duration : 1h 29mn
Bit rate mode : Constant
Bit rate : 768 Kbps
Channel(s) : 6 channels
Channel positions : Front: L C R, Side: L R, LFE
Sampling rate : 48.0 KHz
Bit depth : 24 bits
Compression mode : Lossy
Stream size : 489 MiB (9%)
Title : Dub (BD CEE)
Language : Russian
Default : Yes
Forced : No
Audio #2
ID : 3
Format : DTS
Format/Info : Digital Theater Systems
Mode : 16
Format settings, Endianness : Big
Codec ID : A_DTS
Duration : 1h 29mn
Bit rate mode : Constant
Bit rate : 1 509 Kbps
Channel(s) : 6 channels
Channel positions : Front: L C R, Side: L R, LFE
Sampling rate : 48.0 KHz
Bit depth : 24 bits
Compression mode : Lossy
Stream size : 961 MiB (18%)
Language : English
Default : No
Forced : No
Text #1
ID : 4
Format : UTF-8
Codec ID : S_TEXT/UTF8
Codec ID/Info : UTF-8 Plain Text
Language : Russian
Default : No
Forced : No
Text #2
ID : 5
Format : UTF-8
Codec ID : S_TEXT/UTF8
Codec ID/Info : UTF-8 Plain Text
Language : English
Default : No
Forced : No
Text #3
ID : 6
Format : UTF-8
Codec ID : S_TEXT/UTF8
Codec ID/Info : UTF-8 Plain Text
Title : SDH
Language : English
Default : No
Forced : No
Menu
00:00:00.000 : en:00:00:00.000
00:05:30.497 : en:00:05:30.497
00:08:17.664 : en:00:08:17.664
00:10:44.644 : en:00:10:44.644
00:12:47.475 : en:00:12:47.475
00:14:57.230 : en:00:14:57.230
00:18:15.720 : en:00:18:15.720
00:20:38.362 : en:00:20:38.362
00:24:21.835 : en:00:24:21.835
00:26:13.030 : en:00:26:13.030
00:29:47.369 : en:00:29:47.369
00:34:04.459 : en:00:34:04.459
00:35:38.887 : en:00:35:38.887
00:39:39.836 : en:00:39:39.836
00:43:09.545 : en:00:43:09.545
00:46:16.399 : en:00:46:16.399
00:48:32.451 : en:00:48:32.451
00:52:11.545 : en:00:52:11.545
00:55:35.499 : en:00:55:35.499
00:58:24.418 : en:00:58:24.418
01:01:36.192 : en:01:01:36.192
01:04:35.872 : en:01:04:35.872
01:07:56.572 : en:01:07:56.572
01:10:15.628 : en:01:10:15.628
01:14:53.239 : en:01:14:53.239
01:18:19.820 : en:01:18:19.820
01:21:36.809 : en:01:21:36.809
01:23:59.826 : en:01:23:59.826
Скриншоты
Скачать

Скачать торрент!

Как скачивать? · Что такое торрент? · Рейтинг и ограничения

Сайт не распространяет и не хранит электронные версии произведений, а лишь предоставляет доступ к создаваемому пользователями каталогу ссылок на торрент-файлы, которые содержат только списки хеш-сумм

[Профиль] [ЛС]
Показать сообщения:    
Ответить на тему

Текущее время: Сегодня 20:38

Часовой пояс: GMT + 4



Вы не можете начинать темы
Вы не можете отвечать на сообщения
Вы не можете редактировать свои сообщения
Вы не можете удалять свои сообщения
Вы не можете голосовать в опросах
Вы не можете прикреплять файлы к сообщениям
Вы не можете скачивать файлы