Острие бритвы / The Razor\'s Edge (Джон Байрам / John Byrum) [1984, США, Великобритания, драма, мелодрама, военный, WEB-DL 720p] DVO + Sub Eng + Original Eng

Ответить на тему
 
Автор Сообщение

user ®

Стаж: 7 лет 7 месяцев

Сообщений: 20008

Пост Пост: #1 от 19-Июн-2015 18:45

[Цитировать]

Острие бритвы / The Razor's Edge Страна: США, Великобритания
Студия: Columbia Pictures Corporation, Colgems Productions Ltd., Marcucci-Cohen-Benn Production
Жанр: драма, мелодрама, военный
Год выпуска: 1984
Продолжительность: 02:09:05
Перевод: Профессиональный (двухголосый закадровый) [НТВ+, Наталья Казначеева, Александр Гаврилин]
Cубтитры: английские
Оригинальная аудиодорожка: английский
Режиссер: Джон Байрам / John Byrum
В ролях: Билл Мюррей, Тереза Расселл, Кэтрин Хикс, Денхолм Эллиот, Джеймс Кич, Питер Вон, Брайан Дойл-Мюррей, Стивен Дэвис, Саид Джаффри, Фэйт Брук, Андре Маранн, Брюс Боа, Серж Феллар, Хелен Хортон, Сэм Дуглас, Джефф Хардинг, Гордон Стерн, Кэролин Джон
Описание: Молодой американец Лэрри Даррелл, вернувшись в Чикаго с Первой мировой войны, задумывается об устройстве мира и о моральных ценностях общества. Экранизация романа Сомерсета Моэма.- -Тип релиза: WEB-DL 720p
Контейнер: MKV
Видео: MPEG-4 AVC Video, 1280x532 / 2,40:1 (16:9) / ~3970 kbps / 23,976 fps / Main@L3.1
Аудио 1: Russian: AC3, 2.0 dual mono, 192 kbps, 48 kHz
Аудио 2: English: AC3, 4.0 ch, 448 kbps, 48 kHz
Формат субтитров: softsub (SRT)
Главы: подписаны (eng)
MediaInfo
Общее
Уникальный идентификатор : 193190864566094092859238500087940431153 (0x91573504D526B8878BE10B7DB8A2BD31)
Полное имя : N:\Острие бритвы 1984.WEB-DL.720p.ПД.Eng.mkv
Формат : Matroska
Версия формата : Version 4 / Version 2
Размер файла : 4,24 Гбайт
Продолжительность : 2 ч. 9 м.
Общий поток : 4704 Кбит/сек
Название фильма : The Razor's Edge (1984)
Дата кодирования : UTC 2015-06-18 18:33:01
Программа кодирования : mkvmerge v7.8.0 ('River Man') 32bit built on Mar 27 2015 16:18:02
Библиотека кодирования : libebml v1.3.1 + libmatroska v1.4.2
Attachements : cover_land.jpg / small_cover.jpg / small_cover_land.jpg / cover.jpg
Видео
Идентификатор : 1
Формат : AVC
Формат/Информация : Advanced Video Codec
Профиль формата : Main@L3.1
Параметр CABAC формата : Нет
Параметр ReFrames формата : 2 кадра
Идентификатор кодека : V_MPEG4/ISO/AVC
Продолжительность : 2 ч. 9 м.
Битрейт : 3970 Кбит/сек
Ширина : 1280 пикселей
Высота : 532 пикселя
Соотношение сторон : 2,40:1
Режим частоты кадров : Постоянный
Частота кадров : 23,976 кадра/сек
Цветовое пространство : YUV
Субдискретизация насыщенности : 4:2:0
Битовая глубина : 8 бит
Тип развёртки : Прогрессивная
Бит/(Пиксели*Кадры) : 0.243
Размер потока : 3,58 Гбайт (84%)
Язык : English
Default : Да
Forced : Нет
Основные цвета : BT.709
Характеристики трансфера : BT.709
Коэффициенты матрицы : BT.709
colour_range : Limited
Аудио #1
Идентификатор : 2
Формат : AC-3
Формат/Информация : Audio Coding 3
Расширение режима : CM (complete main)
Параметр Endianness формата : Big
Идентификатор кодека : A_AC3
Продолжительность : 2 ч. 9 м.
Вид битрейта : Постоянный
Битрейт : 192 Кбит/сек
Каналы : 2 канала
Расположение каналов : Front: L R
Частота : 48,0 КГц
Битовая глубина : 16 бит
Метод сжатия : С потерями
Размер потока : 177 Мбайт (4%)
Заголовок : AC3 2.0 dual mono 192kbps - двухголосый (НТВ+, Наталья Казначеева, Александр Гаврилин)
Язык : Russian
Default : Да
Forced : Нет
Аудио #2
Идентификатор : 3
Формат : AC-3
Формат/Информация : Audio Coding 3
Расширение режима : CM (complete main)
Параметр Endianness формата : Big
Идентификатор кодека : A_AC3
Продолжительность : 2 ч. 9 м.
Вид битрейта : Постоянный
Битрейт : 448 Кбит/сек
Каналы : 4 канала
Расположение каналов : Front: L C R, Back: C
Частота : 48,0 КГц
Битовая глубина : 16 бит
Метод сжатия : С потерями
Размер потока : 414 Мбайт (10%)
Заголовок : AC3 4.0ch 448kbps
Язык : English
Default : Нет
Forced : Нет
Текст
Идентификатор : 4
Формат : UTF-8
Идентификатор кодека : S_TEXT/UTF8
Идентификатор кодека/Информация : UTF-8 Plain Text
Язык : English
Default : Нет
Forced : Нет
Меню
00:00:00.000 : en:00:00:00 - Start
00:03:27.000 : en:00:03:27 - Larry Darrell
00:07:20.000 : en:00:07:20 - Sophie
00:09:50.000 : en:00:09:50 - Piedmont
00:13:23.000 : en:00:13:23 - Target Practice
00:17:05.000 : en:00:17:05 - Casualty Transport
00:20:44.000 : en:00:20:44 - Piedmont's Last Stand
00:26:07.000 : en:00:26:07 - War Hero's Return
00:30:27.000 : en:00:30:27 - Change Of Plans
00:33:18.000 : en:00:33:18 - Uncle Elliott's Palace
00:37:40.000 : en:00:37:40 - "I'm Not Going Back."
00:40:40.000 : en:00:40:40 - Doing Her Own Thinking
00:45:47.000 : en:00:45:47 - Isabel's Sacrifice
00:49:26.000 : en:00:49:26 - "You've Been To India?"
00:52:01.000 : en:00:52:01 - Sole Survivor
00:56:59.000 : en:00:56:59 - Raaz
01:03:23.000 : en:01:03:23 - "That's The Church."
01:05:31.000 : en:01:05:31 - Depression's Toll
01:11:42.000 : en:01:11:42 - A Hut In The Mountain
01:18:07.000 : en:01:18:07 - Guy Talk
01:22:54.000 : en:01:22:54 - Sophie In Paris
01:39:24.000 : en:01:39:24 - Engaged To Be Married
01:43:23.000 : en:01:43:23 - Still In Love With Larry
01:49:54.000 : en:01:49:54 - Home On Coco's Lap
01:54:05.000 : en:01:54:05 - "Her Throat Was Cut."
01:57:18.000 : en:01:57:18 - "You Killed My Fiance."
01:59:45.000 : en:01:59:45 - Mr. Elliott Templeton Regrets
02:02:48.000 : en:02:02:48 - "There Is No Payoff."
Скриншоты

...
Скачать

Скачать торрент!

Как скачивать? · Что такое торрент? · Рейтинг и ограничения

Сайт не распространяет и не хранит электронные версии произведений, а лишь предоставляет доступ к создаваемому пользователями каталогу ссылок на торрент-файлы, которые содержат только списки хеш-сумм

[Профиль] [ЛС]
Показать сообщения:    
Ответить на тему

Текущее время: Сегодня 12:31

Часовой пояс: GMT + 4



Вы не можете начинать темы
Вы не можете отвечать на сообщения
Вы не можете редактировать свои сообщения
Вы не можете удалять свои сообщения
Вы не можете голосовать в опросах
Вы не можете прикреплять файлы к сообщениям
Вы не можете скачивать файлы