Самоволка-72 / AWOL-72 (Кристиан Сесма / Christian Sesma) [2015, США, Триллер, DVDRip] VO + Original Eng

Ответить на тему
 
Автор Сообщение

user ®

Стаж: 7 лет 7 месяцев

Сообщений: 20008

Пост Пост: #1 от 19-Июн-2015 12:33

[Цитировать]

Самоволка-72 / AWOL-72
Страна: США
Жанр: Триллер
Год выпуска: 2015
Продолжительность: 01:19:13
Перевод: Одноголосый закадровый Хихидок, Перевод фильма: Enigma
Cубтитры: нет
Оригинальная аудиодорожка: английский
Режиссер: Кристиан Сесма / Christian Sesma
В ролях: Люк Госс, RZA, Букем Вудбайн, Брук Ньютон, Луис Мэндилор, Хезер Руп, Мирта Мишель, Лейф Гантвурт, Марко Хэнлиэн, Джуллиса Линн
Описание: Солдата морской пехоты, владеющего секретной информацией, преследует русский спецназ, полиция Лос-Анджелеса и опасный убийца…
Доп. информация: http://www.kinopoisk.ru/film/626176/http://
www.imdb.com/title/tt2048865/?ref_=fn_al_tt_1
Сэмпл: http://rusfolder.com/43829815
Качество видео: DVDRip
Формат видео: AVI
Видео: XviD, 1713 Кбит/с, 720x304, 25 fps
Аудио: Русский (AC3, 6 ch, 448 Кбит/с)
Аудио 2: английский (AC3, 6 ch, 448 Кбит/с)
MediaInfo
General
Complete name : E:\AWOL72.2015.xixidok.DVDRip.avi
Format : AVI
Format/Info : Audio Video Interleave
File size : 1.45 GiB
Duration : 1h 19mn
Overall bit rate : 2 624 Kbps
Director : ExKinoRay
Writing application : VirtualDubMod 1.5.10.2 (build 2540/release)
Writing library : VirtualDubMod build 2540/release
Video
ID : 0
Format : MPEG-4 Visual
Format profile : Advanced Simple@L5
Format settings, BVOP : 1
Format settings, QPel : No
Format settings, GMC : No warppoints
Format settings, Matrix : Custom
Codec ID : XVID
Codec ID/Hint : XviD
Duration : 1h 19mn
Bit rate : 1 713 Kbps
Width : 720 pixels
Height : 304 pixels
Display aspect ratio : 2.35:1
Frame rate : 25.000 fps
Color space : YUV
Chroma subsampling : 4:2:0
Bit depth : 8 bits
Scan type : Progressive
Compression mode : Lossy
Bits/(Pixel*Frame) : 0.313
Stream size : 971 MiB (65%)
Writing library : XviD 73
Audio #1
ID : 1
Format : AC-3
Format/Info : Audio Coding 3
Mode extension : CM (complete main)
Format settings, Endianness : Big
Codec ID : 2000
Duration : 1h 19mn
Bit rate mode : Constant
Bit rate : 448 Kbps
Channel(s) : 6 channels
Channel positions : Front: L C R, Side: L R, LFE
Sampling rate : 48.0 KHz
Compression mode : Lossy
Stream size : 254 MiB (17%)
Alignment : Split accross interleaves
Interleave, duration : 40 ms (1.00 video frame)
Interleave, preload duration : 500 ms
Title : xixidok
Audio #2
ID : 2
Format : AC-3
Format/Info : Audio Coding 3
Mode extension : CM (complete main)
Format settings, Endianness : Big
Codec ID : 2000
Duration : 1h 19mn
Bit rate mode : Constant
Bit rate : 448 Kbps
Channel(s) : 6 channels
Channel positions : Front: L C R, Side: L R, LFE
Sampling rate : 48.0 KHz
Compression mode : Lossy
Stream size : 254 MiB (17%)
Alignment : Split accross interleaves
Interleave, duration : 40 ms (1.00 video frame)
Interleave, preload duration : 500 ms
Скриншот c названием фильма
URL=http://imageban.ru/show/2015/06/18/51aca905525e0158716972378085d88e/png] [/URL]
Скриншоты
Скачать

Скачать торрент!

Как скачивать? · Что такое торрент? · Рейтинг и ограничения

Сайт не распространяет и не хранит электронные версии произведений, а лишь предоставляет доступ к создаваемому пользователями каталогу ссылок на торрент-файлы, которые содержат только списки хеш-сумм

[Профиль] [ЛС]
Показать сообщения:    
Ответить на тему

Текущее время: Сегодня 20:37

Часовой пояс: GMT + 4



Вы не можете начинать темы
Вы не можете отвечать на сообщения
Вы не можете редактировать свои сообщения
Вы не можете удалять свои сообщения
Вы не можете голосовать в опросах
Вы не можете прикреплять файлы к сообщениям
Вы не можете скачивать файлы